Джон Картер / John Carter (Эндрю Стэнтон) [2012 г., фантастика, фэнтези, боевик, приключения, BDRip]

Ответить на тему
 

sharof1996 ®

Стаж: 4 года 1 месяц

Сообщений: 7

Джон Картер / John Carter
Год выпуска: 2012
Страна: США
Жанр: фантастика, фэнтези, боевик, приключения
Продолжительность: 02:12:02
Перевод: Профессиональный (полное дублирование)
Режиссер: Эндрю Стэнтон
В ролях: Тейлор Китч
Линн Коллинс
Марк Стронг
Доминик Уэст
Джеймс Пьюрфой
Брайан Крэнстон
Дэрил Сабара
Аманда Клэйтон
Киаран Хайндс
Николас Вудесон
Описание: Ветеран Гражданской войны в США Джон Картер против своей воли оказывается на Марсе, где попадает в плен к воинственным четырехметровым туземцам. Картеру предстоит не только спастись самому, но и спасти принцессу Дею Торис из Гелиума.
Качество: BDRip
Формат: mkv
Видео кодек: H.264
Аудио кодек: AC-3
Видео: 1 920x800 , 4 419 kbps, 23.976 fps
Аудио: 48.0 KHz, 384 Kbps, 6 (ch)

Скриншоты




Media info

General
Unique ID : 174692504116196030600514169639088068319 (0x836C8D6EEB3957508E84DF6ED14296DF)
Complete name : D:\МЕДИА\ФИЛЬМЫ\Films\john.carter.2012.d.bdrip.1080p.mkv
Format : Matroska
File size : 4.43 GiB
Duration : 2h 12mn
Overall bit rate : 4 803 Kbps
Encoded date : UTC 2012-05-27 11:51:40
Writing application : mkvmerge v5.5.0 ('Healer') built on Apr 24 2012 23:47:03
Writing library : libebml v1.2.3 + libmatroska v1.3.0
Video
ID : 1
Format : AVC
Format/Info : Advanced Video Codec
Format profile : [email protected]
Format settings, CABAC : Yes
Format settings, ReFrames : 5 frames
Muxing mode : Container [email protected]
Codec ID : V_MPEG4/ISO/AVC
Duration : 2h 12mn
Bit rate : 4 419 Kbps
Width : 1 920 pixels
Height : 800 pixels
Display aspect ratio : 2.40:1
Frame rate : 23.976 fps
Color space : YUV
Chroma subsampling : 4:2:0
Bit depth : 8 bits
Scan type : Progressive
Bits/(Pixel*Frame) : 0.120
Stream size : 3.99 GiB (90%)
Writing library : x264 core 122 r2184 5c85e0a
Encoding settings : cabac=1 / ref=5 / deblock=1:-3:-3 / analyse=0x3:0x113 / me=umh / subme=10 / psy=1 / psy_rd=0.80:0.15 / mixed_ref=1 / me_range=48 / chroma_me=1 / trellis=2 / 8x8dct=1 / cqm=0 / deadzone=21,11 / fast_pskip=0 / chroma_qp_offset=-3 / threads=6 / sliced_threads=0 / nr=0 / decimate=1 / interlaced=0 / bluray_compat=0 / constrained_intra=0 / bframes=7 / b_pyramid=2 / b_adapt=2 / b_bias=0 / direct=3 / weightb=1 / open_gop=0 / weightp=2 / keyint=240 / keyint_min=23 / scenecut=40 / intra_refresh=0 / rc=2pass / mbtree=0 / bitrate=4419 / ratetol=1.0 / qcomp=0.70 / qpmin=0 / qpmax=69 / qpstep=4 / cplxblur=20.0 / qblur=0.5 / ip_ratio=1.40 / pb_ratio=1.30 / aq=2:0.90
Color primaries : BT.709-5, BT.1361, IEC 61966-2-4, SMPTE RP177
Transfer characteristics : BT.709-5, BT.1361
Matrix coefficients : BT.709-5, BT.1361, IEC 61966-2-4 709, SMPTE RP177
Audio
ID : 2
Format : AC-3
Format/Info : Audio Coding 3
Mode extension : CM (complete main)
Muxing mode : Header stripping
Codec ID : A_AC3
Duration : 2h 12mn
Bit rate mode : Constant
Bit rate : 384 Kbps
Channel(s) : 6 channels
Channel positions : Front: L C R, Side: L R, LFE
Sampling rate : 48.0 KHz
Bit depth : 16 bits
Compression mode : Lossy
Stream size : 363 MiB (8%)
Language : Russian
Text #1
ID : 3
Format : UTF-8
Codec ID : S_TEXT/UTF8
Codec ID/Info : UTF-8 Plain Text
Language : Russian
Text #2
ID : 4
Format : UTF-8
Codec ID : S_TEXT/UTF8
Codec ID/Info : UTF-8 Plain Text
Title : Forced.
Language : Russian
Text #3
ID : 5
Format : UTF-8
Codec ID : S_TEXT/UTF8
Codec ID/Info : UTF-8 Plain Text
Language : English
Text #4
ID : 6
Format : UTF-8
Codec ID : S_TEXT/UTF8
Codec ID/Info : UTF-8 Plain Text
Title : SDH
Language : English
Menu
00:00:00.000 : en:Chapter 01
00:04:01.241 : en:Chapter 02
00:10:22.913 : en:Chapter 03
00:20:08.790 : en:Chapter 04
00:27:05.206 : en:Chapter 05
00:37:29.163 : en:Chapter 06
00:47:43.569 : en:Chapter 07
00:58:51.653 : en:Chapter 08
01:07:42.433 : en:Chapter 09
01:15:01.038 : en:Chapter 10
01:22:34.199 : en:Chapter 11
01:30:29.799 : en:Chapter 12
01:37:02.066 : en:Chapter 13
01:46:52.030 : en:Chapter 14
01:53:48.988 : en:Chapter 15
02:02:54.533 : en:Chapter 16
02:12:01.496 : en:Chapter 17


Последний раз редактировалось: sharof1996 (2013-10-31 22:06), всего редактировалось 4 раз(а)

Создавать темы 31-Окт-2013 18:31

[Профиль]  [ЛС] 

СтАсИкОс

Стаж: 6 лет 11 месяцев

Сообщений: 314

Симпатии: 20

Оформите по шаблону и судя по МИ исправьте качество на BDRip
http://tas-ix.net/viewtopic.php?t=5534

Создавать темы 31-Окт-2013 20:41

[Профиль]  [ЛС] 

lisovskii_yura

Стаж: 4 года 5 месяцев

Сообщений: 17

Симпатии: 1

Дайте раздачу , плиз!!!!

Создавать темы 16-Ноя-2013 21:22

[Профиль]  [ЛС] 
Показать сообщения:    
Ответить на тему

Текущее время: 11-Дек 12:50

Часовой пояс: UTC + 5



Вы не можете начинать темы
Вы не можете отвечать на сообщения
Вы не можете редактировать свои сообщения
Вы не можете удалять свои сообщения
Вы не можете голосовать в опросах
Вы не можете прикреплять файлы к сообщениям
Вы не можете скачивать файлы