Ты хочешь, чтобы я его убил? / Uwantme2killhim? (Эндрю Дуглас) [2013 г., Триллер, драма, DVDRip]

Ответить на тему
 

Suxrob89 ®

Стаж: 7 лет 3 месяца

Сообщений: 933

Симпатии: 564

-Ты хочешь, чтобы я его убил? / Uwantme2killhim?- Год выпуска: 2013
Страна: Великобритания, Andrew Douglas Company, Anonymous Content, Bad Hat Harry Productions
Жанр: Триллер, драма
Продолжительность: 01:28:18
Перевод: Любительский (одноголосый)-Режиссер: Эндрю Дуглас-В ролях: Джейми Блэкли, Тоби Регбо, Джоанн Фроггатт, Лиз Уайт, Джэми Уинстон, Марк Вомак, Эми Рен, Луиз Деламер, Джеймс Берроуз, Стефани Леонидас-Описание: Марк, парень, который увлекается интернет знакомствами.Там он знакомится с девушкой Рейчел, которая находится под программой защиты свидетелей. Неожиданное знакомство приводит к трагическим последствиям для самой девушки, а потом и для самого Марка. Фильм снят по реальной истории.- -Качество: DVDRip
Формат: AVI
Видео кодек: XviD
Аудио кодек: AC3
Видео: 1940 kb/s, 720x304, 25.000 fps
Аудио: AC3, 256 kb/s (2 ch), 48.0 KHz

Media info

Format : AVI
Format/Info : Audio Video Interleave
File size : 1.36 GiB
Duration : 1h 28mn
Overall bit rate : 2 206 Kbps
Writing application : VirtualDubMod 1.5.10.2 (build 2540/release)
Writing library : VirtualDubMod build 2540/release
Video #0
ID : 0
Format : MPEG-4 Visual
Format profile : Advanced [email protected]
Format settings, BVOP : 2
Format settings, QPel : No
Format settings, GMC : No warppoints
Format settings, Matrix : Default (H.263)
Muxing mode : Packed bitstream
Codec ID : XVID
Codec ID/Hint : XviD
Duration : 1h 28mn
Bit rate : 1 940 Kbps
Width : 720 pixels
Height : 304 pixels
Display aspect ratio : 2.35:1
Frame rate : 25.000 fps
Color space : YUV
Chroma subsampling : 4:2:0
Bit depth : 8 bits
Scan type : Progressive
Compression mode : Lossy
Bits/(Pixel*Frame) : 0.355
Stream size : 1.20 GiB (88%)
Writing library : XviD 64
Audio #1
ID : 1
Format : AC-3
Format/Info : Audio Coding 3
Mode extension : CM (complete main)
Format settings, Endianness : Big
Codec ID : 2000
Duration : 1h 28mn
Bit rate mode : Constant
Bit rate : 256 Kbps
Channel(s) : 2 channels
Channel positions : Front: L R
Sampling rate : 48.0 KHz
Bit depth : 16 bits
Compression mode : Lossy
Stream size : 162 MiB (12%)
Alignment : Split accross interleaves
Interleave, duration : 40 ms (1.00 video frame)
Interleave, preload duration : 500 ms

Скриншоты

Создавать темы 02-Ноя-2013 07:38

[Профиль]  [ЛС] 
Показать сообщения:    
Ответить на тему

Текущее время: 21-Ноя 15:17

Часовой пояс: UTC + 5



Вы не можете начинать темы
Вы не можете отвечать на сообщения
Вы не можете редактировать свои сообщения
Вы не можете удалять свои сообщения
Вы не можете голосовать в опросах
Вы не можете прикреплять файлы к сообщениям
Вы не можете скачивать файлы