Перси Джексон и Море чудовищ / Percy Jackson: Sea of Monsters (Тор Фройденталь) [2013 г., фэнтези, приключения, семейный, WEB-DLRip] Dub [Звук с TS]

Ответить на тему
 

JSTmedia ®

Стаж: 5 лет 1 месяц

Сообщений: 3

Перси Джексон и Море чудовищ / Percy Jackson: Sea of Monsters- -Год выпуска: 2013
Страна: США
Жанр: фэнтези, приключения, семейный
Продолжительность: 01:46:30
Перевод: Дублированный [Звук c TS]-Режиссер: Тор Фройденталь-В ролях: Логан Лерман, Александра Даддарио, Дуглас Смит, Ливэн Рамбин, Брэндон Т. Джексон, Джейк Эйбел, Энтони Хэд, Стэнли Туччи, Коннор Крэш Данн, Палома Квиатковски-Описание: Лагерь полукровок атакует Люк Кастеллан, который раскрывает свои планы по уничтожению горы Олимп. Наставник Перси, Хирон узнает, что Люк отравил волшебное дерево, которое отвечает за барьер, защищающий Лагерь Полукровок, и которое создано из Талии Грейс, дочери Зевса, убитой циклопом. Аннабет Чейз выясняет, что Золотое Руно может восстановить дерево, и директор лагеря, Дионис, посылает Клариссу Ла Ру, дочь Ареса и соперницу Перси, найти его…-Доп. информация: Звук с TS-Качество: WEB-DLRip
Формат: AVI
Видео кодек: XviD
Аудио кодек: MP3
Видео: Xvid, 720x304, 23.976fps
Аудио: MP3, 4800Hz, stereo 192kbps-

M.I

Format : AVI
Format/Info : Audio Video Interleave
File size : 1.46 GiB
Duration : 1h 46mn
Overall bit rate : 1 962 Kbps
Writing application : VirtualDubMod 1.5.10.2 (build 2540/release)
Writing library : VirtualDubMod build 2540/release
Video
ID : 0
Format : MPEG-4 Visual
Format profile : Advanced [email protected]
Format settings, BVOP : 2
Format settings, QPel : No
Format settings, GMC : No warppoints
Format settings, Matrix : Custom
Codec ID : XVID
Codec ID/Hint : XviD
Duration : 1h 46mn
Bit rate : 1 762 Kbps
Width : 720 pixels
Height : 304 pixels
Display aspect ratio : 2.35:1
Frame rate : 23.976 fps
Color space : YUV
Chroma subsampling : 4:2:0
Bit depth : 8 bits
Scan type : Progressive
Compression mode : Lossy
Bits/(Pixel*Frame) : 0.336
Stream size : 1.31 GiB (90%)
Writing library : XviD 1.2.1 (UTC 2008-12-04)
Audio
ID : 1
Format : MPEG Audio
Format version : Version 1
Format profile : Layer 3
Mode : Joint stereo
Mode extension : MS Stereo
Codec ID : 55
Codec ID/Hint : MP3
Duration : 1h 46mn
Bit rate mode : Constant
Bit rate : 192 Kbps
Channel(s) : 2 channels
Sampling rate : 48.0 KHz
Compression mode : Lossy
Stream size : 146 MiB (10%)
Alignment : Aligned on interleaves
Interleave, duration : 42 ms (1.00 video frame)
Interleave, preload duration : 504 ms

Скриншоты



Последний раз редактировалось: JSTmedia (2013-11-02 21:10), всего редактировалось 6 раз(а)

Создавать темы 02-Ноя-2013 12:48

[Профиль]  [ЛС] 

temurid

Стаж: 5 лет 6 месяцев

Сообщений: 60

Симпатии: 1

JSTmedia, добавьте английскую дорожку плизз!!

Создавать темы 02-Ноя-2013 13:07

[Профиль]  [ЛС] 

SuLtan

Стаж: 4 года 5 месяцев

Сообщений: 49

Симпатии: 1

Лицензия Когда ?

Создавать темы 02-Ноя-2013 13:26

[Профиль]  [ЛС] 

exciter

Стаж: 7 лет 3 месяца

Сообщений: 158

Симпатии: 2

Перевод: Профессиональный (полное дублирование)......
Это что значит "Чистый звук"?

Создавать темы 02-Ноя-2013 13:30

[Профиль]  [ЛС] 

arslan-mukatov

Стаж: 5 лет 8 месяцев

Сообщений: 74

давайте раздавайте уже!?

Создавать темы 02-Ноя-2013 17:25

[Профиль]  [ЛС] 

bexa96

Стаж: 6 лет 9 месяцев

Сообщений: 381

Симпатии: 49

когда лицуха очень жду

Создавать темы 02-Ноя-2013 17:56

[Профиль]  [ЛС] 

Rudenko

Стаж: 5 лет 4 месяца

Сообщений: 7

надор плисс дайте скорость чё та у меня медленно качает

Создавать темы 03-Ноя-2013 12:20

[Профиль]  [ЛС] 

mod

Стаж: 8 лет 9 месяцев

Сообщений: 34

Симпатии: 8

звук как с унитаза :(
подождем с нормальным звуком

Создавать темы 03-Ноя-2013 14:36

[Профиль]  [ЛС] 

San_dieGo

Стаж: 4 года 9 месяцев

Сообщений: 155

Симпатии: 2

понравился фильм
автору +1

Создавать темы 05-Ноя-2013 22:43

[Профиль]  [ЛС] 

ReD TiGeR

Стаж: 5 лет 3 месяца

Сообщений: 135

Симпатии: 2

звук как с унитаза :(
Улыбнуло :-DDDDD

Создавать темы 22-Ноя-2013 00:37

[Профиль]  [ЛС] 

СтАсИкОс

Стаж: 6 лет 9 месяцев

Сообщений: 314

Симпатии: 20

Перси Джексон и Море чудовищ / Percy Jackson: Sea of Monsters (Тор Фройденталь / Thor Freudenthal) [2013, США, фэнтези, приключения, семейный, HDRip][Лицензия]

Создавать темы 27-Ноя-2013 09:53

[Профиль]  [ЛС] 
Показать сообщения:    
Ответить на тему

Текущее время: 18-Окт 21:57

Часовой пояс: UTC + 5



Вы не можете начинать темы
Вы не можете отвечать на сообщения
Вы не можете редактировать свои сообщения
Вы не можете удалять свои сообщения
Вы не можете голосовать в опросах
Вы не можете прикреплять файлы к сообщениям
Вы не можете скачивать файлы