Лавлэйс / Lovelace (Роб Эпштейн, Джеффри Фридман) [2013, США, драма, биография, HDRip] [Лицензия]

Страницы :  1, 2  След.

Ответить на тему
 

Grock ®

Стаж: 6 лет 6 месяцев

Сообщений: 637

Симпатии: 113

-Лавлэйс / Lovelace
Название: Лавлэйс
Оригинальное название: Lovelace
Год выпуска: 2013
Жанр: драма, биография
Озвучивание: Дублированное [Лицензия]
Режиссер: Роб Эпштейн, Джеффри Фридман
В ролях: Аманда Сайфред, Питер Сарсгаард, Роберт Патрик, Шэрон Стоун, Джуно Темпл, Адам Броди, Бобби Каннавале, Крис Нот, Эрик Робертс, Джеймс Франко
Описание: Биография самой известной порноактрисы Линды Лавлейс. Чтобы заработать подобную славу, ей нужно было сыграть только в одном фильме — «Глубокая глотка». Всю свою жизнь после этого она посвятила борьбе за права женщин.
Фильм состоит из двух частей, хронологически повторяющих друг друга. Первая — «прилизанная», почти глянцевая история симпатичной девушки, «любившей секс» и без особых усилий ставшей культовой порнозвездой. Вторая — то, что оставалось «за кадром» в первой части: сексуальное насилие и рукоприкладство со стороны мужа Линды, умудрявшегося продавать «на ночь» свою жену даже после громкого успеха «Глубокой глотки», проблемы с алкоголем и наркотиками, сексуальные домогательства медиамагнатов, политиков и работников порноиндустрии...
Выпущено: США
Продолжительность: 01:32:47
Субтитры: Нет
Формат: AVI
Качество видео: HDRip
Видео: XviD, 720x384, 23.976 fps, ~1862 kbps
Аудио: AC3, 48000Hz, 6ch, ~384 kbps
КиноПоиск.Ru: 6.517 (3481)
IMDB.com: 6.0/10 (9067 votes)

Медиа Инфо

C:\Лавлэйс.2013.D.HDRip.avi
General
Complete name : C:\Лавлэйс.2013.D.HDRip.avi
Format : AVI
Format/Info : Audio Video Interleave
File size : 1.46 GiB
Duration : 1h 32mn
Overall bit rate : 2 255 Kbps
Writing application : VirtualDubMod 1.5.10.2 (build 2540/release)
Writing library : VirtualDubMod build 2540/release
Video
Format : MPEG-4 Visual
Format profile : Streaming [email protected]
Format settings, BVOP : Yes
Format settings, QPel : No
Format settings, GMC : No warppoints
Format settings, Matrix : Default
Codec ID : XVID
Codec ID/Hint : XviD
Duration : 1h 32mn
Bit rate : 1 862 Kbps
Width : 720 pixels
Height : 384 pixels
Display aspect ratio : 1.875
Frame rate : 23.976 fps
Resolution : 24 bits
Colorimetry : 4:2:0
Scan type : Progressive
Bits/(Pixel*Frame) : 0.281
Stream size : 1.21 GiB (83%)
Writing library : XviD 50
Audio
Format : AC-3
Format/Info : Audio Coding 3
Codec ID : 2000
Duration : 1h 32mn
Bit rate mode : Constant
Bit rate : 384 Kbps
Channel(s) : 6 channels
Channel positions : Front: L C R, Rear: L R, LFE
Sampling rate : 48.0 KHz
Stream size : 255 MiB (17%)
Alignment : Split accross interleaves
Interleave, duration : 42 ms (1.00 video frame)
Interleave, preload duration : 500 ms

Скриншоты







Последний раз редактировалось: Grock (2013-11-25 06:21), всего редактировалось 3 раз(а)

Создавать темы 02-Ноя-2013 19:45

[Профиль]  [ЛС] 

VAIO

Стаж: 5 лет 7 месяцев

Сообщений: 1568

Симпатии: 1399

как перевод ?
Дублированный, лицензия : )

Создавать темы 02-Ноя-2013 21:08

[Профиль]  [ЛС] 

Grock ®

Стаж: 6 лет 6 месяцев

Сообщений: 637

Симпатии: 113

Zafarbrave, Как люди посмотрят, отпишутся), сам еще не успел посмотреть.
valeri-mvv-101, Спасибо большое за помощь в раздаче zd

Создавать темы 03-Ноя-2013 00:12

[Профиль]  [ЛС] 

Oti

Стаж: 5 лет 6 месяцев

Сообщений: 40

Пойдет для одного раза просмотра

Создавать темы 03-Ноя-2013 07:50

[Профиль]  [ЛС] 

Grock ®

Стаж: 6 лет 6 месяцев

Сообщений: 637

Симпатии: 113

Inobat, Только русский, Оригинальной дорожки нет.

Создавать темы 03-Ноя-2013 08:57

[Профиль]  [ЛС] 

Cheef_Chaf

Стаж: 4 года 11 месяцев

Сообщений: 11

ребята извените за оффтоп. А когда будет залит ТОР 2?

Создавать темы 03-Ноя-2013 11:49

[Профиль]  [ЛС] 

jokerbek

Стаж: 6 лет 8 месяцев

Сообщений: 184

Симпатии: 9

фильм как??? рейтинг есть?

Создавать темы 03-Ноя-2013 12:31

[Профиль]  [ЛС] 

Grock ®

Стаж: 6 лет 6 месяцев

Сообщений: 637

Симпатии: 113

фильм как??? рейтинг есть?
КиноПоиск.Ru: 6.517 (3481)
IMDB.com: 6.0/10 (9067 votes)

Создавать темы 03-Ноя-2013 14:14

[Профиль]  [ЛС] 

jokerbek

Стаж: 6 лет 8 месяцев

Сообщений: 184

Симпатии: 9

фильм как??? рейтинг есть?
КиноПоиск.Ru: 6.517 (3481)
IMDB.com: 6.0/10 (9067 votes)
спасибо за инф

Создавать темы 03-Ноя-2013 18:03

[Профиль]  [ЛС] 

Grock ®

Стаж: 6 лет 6 месяцев

Сообщений: 637

Симпатии: 113

Cheef_Chaf, Тор 2 уже есть, только в CamRip
jokerbek, Не за что )

Создавать темы 06-Ноя-2013 13:22

[Профиль]  [ЛС] 

Cheef_Chaf

Стаж: 4 года 11 месяцев

Сообщений: 11

Grock, а не известно когда дублированный выйдет?

Создавать темы 07-Ноя-2013 08:20

[Профиль]  [ЛС] 

Zodiacos

Стаж: 3 года 10 месяцев

Сообщений: 7

норм фильм

Создавать темы 07-Ноя-2013 10:37

[Профиль]  [ЛС] 

Grock ®

Стаж: 6 лет 6 месяцев

Сообщений: 637

Симпатии: 113

Cheef_Chaf, Если вы про Тор 2, то он уже дублированный, только картинка CamRip
а насчет лицензионного я не в курсе когда выходит.

Создавать темы 07-Ноя-2013 13:57

[Профиль]  [ЛС] 

metamod

Стаж: 5 лет 7 месяцев

Сообщений: 22

Симпатии: 1

Не хватало еще и фильмы про шлюх снимать

Создавать темы 07-Ноя-2013 15:08

[Профиль]  [ЛС] 

donik5700

Стаж: 4 года 6 месяцев

Сообщений: 18

английский язык присутствует?

Создавать темы 19-Ноя-2013 19:52

[Профиль]  [ЛС] 
Показать сообщения:    
Ответить на тему

Текущее время: 23-Авг 17:02

Часовой пояс: UTC + 5



Вы не можете начинать темы
Вы не можете отвечать на сообщения
Вы не можете редактировать свои сообщения
Вы не можете удалять свои сообщения
Вы не можете голосовать в опросах
Вы не можете прикреплять файлы к сообщениям
Вы не можете скачивать файлы