Маленькие проказники (ТВ-1) / Little Busters! (Ямакава Ёсики) [TV] [26 из 26] [без хардсаба] [RUS(ext), JAP+SUB] [2012 г., комедия, драма, романтика, BDRip] [720p]

Ответить на тему
 

MeiDoCorpse ®

Стаж: 4 года 7 месяцев

Сообщений: 222

Симпатии: 14

- Год выпуска: 2012
Страна: Япония
Жанр: комедия, драма, романтика
Продолжительность: ТВ | 26 эп. по 25 мин.-Режиссёр: Ямакава Ёсики
Сценарий: Симада Митиру
Студия: J.C. Staff-Описание:
В огромной старшей школе-интернате, раскинувшейся среди лесов и полей, настоящий переполох - вернулся всеобщий любимец Кёсукэ Нацумэ! Загадочный выпускник то и дело исчезает, но каждое его возвращение рождает какие-то невероятные события и не дает скучать. С особым нетерпением возвращения командира ждали четверо: Рики, Масато, Кэнго и Рин, младшая сестра Кёсукэ. С детства их сплоченная группа «Маленькие проказники» держалась вместе, напрягая соседей, защищая справедливость, а главное – развлекаясь от души! Вот и сейчас, на пороге окончания школы и близкого расставания, лидер решил встряхнуть друзей, объявив, что совсем скоро они играют в бейсбол!
Теперь под шепотки всей школы надо создать команду и набрать дополнительных игроков – как мудро заметил Кёсукэ, желательно девушек. Ну а мы в процессе набора, расстановки по позициям, игр и тренировок познакомимся с героями и героинями, поймем и полюбим мир «проказников», а может, и приблизимся к его главной тайне. Все не так просто, как кажется, и каждый персонаж, его характер, поступки, явные и скрытые радости и горести составляют огромный сюжетный гобелен, через который красной нитью проходит главная тема сериала. Развитие, взросление и переход в новую жизнь похожи на исчезновение из одного мира и рождение в другом. Без усилий, слез и жертв такое не происходит, но главное – дружба, отвага и честь сохраняют свою цену в обоих мирах!
© Hollow, World Art-Информационные ссылки: AniDB || World Art || MAL-Качество: BDRip
Энкод: Winter
Контейнер: mkv
Тип видео: Без хардсаба
Наличие линковки: Нет
Видео: x264 (Hi10p), 1280x720, ~2600 Kbps, 23.976 fps
Аудио: Japanese, Vorbis, 48000Hz, ~256 Kbps, 2ch, в составе контейнера
Аудио: Russian, AC3, 48000Hz, ~192 Kbps, 2ch, внешними файлами | Zendos & Eladiel
Субтитры: Russian, ASS, внешними файлами | Hollow & KeeperRus-

Список эпизодов

01. We`ll Call Ourselves... "Little Busters"!
02. If You`re Happy, I`m Happy
03. I Like Cute Things, You See
04. We'll Make a Happy, Sunny Place
05. To Find What I've Lost
06. Let's Find Wonderful Things
07. Now Then, Guess Who!
08. Let's Looking for Roommates!
09. Save the Cafeteria!
10. The Blue of the Sky, the Blue of the Sea
11. See, There Ain't No Ghosts
12. A Blue World, Stretching on to Eternity
13. Where the End Begins
14. That`s Why I`ll Hold My Hand Out to You
15. Hell Yeah, This Totally Rocks
16. Don't Look at Me Like That
17. I Wanted Someone to Stay By My Side
18. The Answer Is in Your Heart
19. Keep Working Hard
20. Cure the Lovesick
21. Fifty Nautical Miles into the Sky
22. I Promise I`ll Come Back
23. For Those You Love
24. If Rin-chan Is Happy, I`m Happy, Too
25. The Final Member
26. The Greatest of Friends

Скриншоты

Подробные тех. данные

General
Unique ID : 220149537818222804997569662963262585731 (0xA59F423AFF0F78BBAFD25C2DABEA7B83)
Complete name : D:\Anime\Little Busters! [BD] [720p]\[Winter] Little Busters! 01 [BDrip 1280x720 x264 Vorbis].mkv
Format : Matroska
Format version : Version 2
File size : 451 MiB
Duration : 23mn 42s
Overall bit rate mode : Variable
Overall bit rate : 2 663 Kbps
Encoded date : UTC 2013-01-31 14:03:26
Writing application : mkvmerge v2.9.8 ('C'est le bon') built on Aug 13 2009 12:49:06
Writing library : libebml v0.7.7 + libmatroska v0.8.1
Video
ID : 1
Format : AVC
Format/Info : Advanced Video Codec
Format profile : High [email protected]
Format settings, CABAC : Yes
Format settings, ReFrames : 9 frames
Codec ID : V_MPEG4/ISO/AVC
Duration : 23mn 42s
Bit rate : 2 354 Kbps
Width : 1 280 pixels
Height : 720 pixels
Display aspect ratio : 16:9
Frame rate mode : Constant
Frame rate : 23.976 fps
Color space : YUV
Chroma subsampling : 4:2:0
Bit depth : 10 bits
Scan type : Progressive
Bits/(Pixel*Frame) : 0.107
Stream size : 399 MiB (88%)
Writing library : x264 core 129 r2230 1cffe9f
Encoding settings : cabac=1 / ref=9 / deblock=1:-2:-2 / analyse=0x3:0x133 / me=umh / subme=9 / psy=1 / psy_rd=0.90:0.00 / mixed_ref=1 / me_range=24 / chroma_me=1 / trellis=2 / 8x8dct=1 / cqm=0 / deadzone=21,11 / fast_pskip=1 / chroma_qp_offset=-2 / threads=6 / lookahead_threads=1 / sliced_threads=0 / nr=0 / decimate=0 / interlaced=0 / bluray_compat=0 / constrained_intra=0 / bframes=8 / b_pyramid=2 / b_adapt=2 / b_bias=0 / direct=1 / weightb=1 / open_gop=0 / weightp=2 / keyint=250 / keyint_min=23 / scenecut=40 / intra_refresh=0 / rc=crf / mbtree=0 / crf=15.7 / qcomp=0.70 / qpmin=9 / qpmax=40 / qpstep=4 / ip_ratio=1.40 / pb_ratio=1.30 / aq=1:0.90
Default : No
Forced : No
Audio
ID : 2
Format : Vorbis
Format settings, Floor : 1
Codec ID : A_VORBIS
Duration : 23mn 42s
Bit rate mode : Variable
Bit rate : 256 Kbps
Channel count : 2 channels
Sampling rate : 48.0 KHz
Compression mode : Lossy
Stream size : 43.4 MiB (10%)
Writing library : libVorbis (Schaufenugget) (20101101 (Schaufenugget))
Language : Japanese
Default : Yes
Forced : No

Создавать темы 02-Ноя-2013 19:54

[Профиль]  [ЛС] 
Показать сообщения:    
Ответить на тему

Текущее время: 13-Дек 18:07

Часовой пояс: UTC + 5



Вы не можете начинать темы
Вы не можете отвечать на сообщения
Вы не можете редактировать свои сообщения
Вы не можете удалять свои сообщения
Вы не можете голосовать в опросах
Вы не можете прикреплять файлы к сообщениям
Вы не можете скачивать файлы