Страсти Христовы / The Passion of the Christ (Мэл Гибсон / Mel Gibson) [2004 г., историческая драма, BDRip 720p]

Ответить на тему
 

surik ®

Стаж: 7 лет 4 месяца

Сообщений: 61

Симпатии: 9

Страсти Христовы / The Passion of the Christ- Год выпуска: 2004
Страна: США
Жанр: историческая драма
Продолжительность: 02:06:32
Перевод: Профессиональный многоголосный закадровый («Киномания»)
Cубтитры: Нет
Режиссер: Мэл Гибсон / Mel Gibson-В ролях: Джеймс Кэвизел /James Caviezel/, Майя Моргенштерн /Maia Morgenstern/, Христо Дживков /Christo Jivkov/, Франческо Де Вито /Francesco De Vito/, Моника Беллуччи /Monica Bellucci/, Маттиа Сбраджа /Mattia Sbragia/, Тони Берторелли /Toni Bertorelli/, Люка Лионнелло /Luca Lionello/, Христо Шопов /Hristo Shopov/, Клаудия Джерини /Claudia Gerini/-Описание: Попытка детально воссоздать последние двенадцать часов из жизни Иисуса Христа. Действие начинается в Гефсиманском саду, куда Иисус пришел помолиться после тайной вечери. Иисус сопротивляется искушениям, которым подвергает его сатана. Преданный Иудой Искариотом, Иисус арестован.
Его приводят назад в Иерусалим, где предводители фарисеев обвиняют его в богохульстве, и суд над ним завершается смертным приговором. Иисуса приводят к прокуратору Иудеи Пилату, который выслушивает обвинения, выдвинутые фарисеями. Поняв, что речь идет о политическом конфликте, Пилат передает дело царю Ироду.
Ирод отсылает Иисуса обратно к Пилату, и тот предлагает толпе сделать выбор между Иисусом и разбойником Варравой. Толпа выбирает: свободу Варраве и смерть Иисусу. Иисуса передают римским солдатам и подвергают бичеванию.
Обезображенного до неузнаваемости его снова приводят к Пилату, который показывает его толпе, словно говоря: «Разве этого недостаточно?» Толпе недостаточно. Пилат умывает руки и приказывает сделать так, как желает толпа. Иисусу дают крест и приказывают пронести его по улицам Иерусалима до самой Голгофы.
На Голгофе Иисуса распинают, и он проходит через последнее искушение: страх, что его Отец покинул его. Он преодолевает этот страх, смотрит на свою мать Марию и произносит слова, которые может понять до конца только она: «Свершилось»…- -рейтинг МРАА: лицам до 17 лет обязательно присутствие взрослого!!!-Качество: BDRip (720p)
Формат: MKV
Видео кодек: x264
Аудио кодек: AAC
Видео: 1280x536 (2.40:1) 23.976 fps CBR 3 321 Kbps
Аудио: 48 kHz, AAC, 6 ch 448 kbps-

MI

\Strasti.Hristovy.2004.BDRip.720p.mkv
General
Unique ID : 222109385301869458285703155772267801639 (0xA718B62BF500D1F6A0A451213D5DAC27)
Complete name : \Strasti.Hristovy.2004.BDRip.720p.mkv
Format : Matroska
Format version : Version 1
File size : 3.33 GiB
Duration : 2h 6mn
Overall bit rate : 3 771 Kbps
Encoded date : UTC 2009-02-12 16:38:56
Writing application : mkvmerge v2.4.2 ('Oh My God') built on Jan 18 2009 17:30:28
Writing library : libebml v0.7.7 + libmatroska v0.8.1
Video #1
ID : 1
Format : AVC
Format/Info : Advanced Video Codec
Format profile : [email protected]
Format settings, CABAC : Yes
Format settings, ReFrames : 5 frames
Codec ID : V_MPEG4/ISO/AVC
Duration : 2h 6mn
Bit rate : 3 321 Kbps
Width : 1 280 pixels
Height : 536 pixels
Display aspect ratio : 2.40:1
Frame rate mode : Constant
Frame rate : 23.976 fps
Color space : YUV
Chroma subsampling : 4:2:0
Bit depth : 8 bits
Scan type : Progressive
Bits/(Pixel*Frame) : 0.202
Stream size : 2.87 GiB (86%)
Title : www.MySiLU.com
Writing library : x264 core 66 r1101M b69548a
Encoding settings : cabac=1 / ref=5 / deblock=1:-2:-1 / analyse=0x3:0x113 / me=umh / subme=7 / psy_rd=1.0:0.0 / mixed_ref=1 / me_range=16 / chroma_me=1 / trellis=2 / 8x8dct=1 / cqm=2 / deadzone=21,11 / chroma_qp_offset=-2 / threads=6 / nr=0 / decimate=0 / mbaff=0 / bframes=3 / b_pyramid=1 / b_adapt=2 / b_bias=0 / direct=3 / wpredb=1 / keyint=250 / keyint_min=25 / scenecut=40(pre) / rc=2pass / bitrate=3321 / ratetol=1.0 / qcomp=0.60 / qpmin=10 / qpmax=51 / qpstep=4 / cplxblur=20.0 / qblur=0.5 / vbv_maxrate=50000 / vbv_bufsize=50000 / ip_ratio=1.40 / pb_ratio=1.30 / aq=1:1.00
Language : arc
Default : Yes
Forced : No
Audio #2
ID : 2
Format : AC-3
Format/Info : Audio Coding 3
Mode extension : CM (complete main)
Format settings, Endianness : Big
Codec ID : A_AC3
Duration : 2h 6mn
Bit rate mode : Constant
Bit rate : 448 Kbps
Channel(s) : 6 channels
Channel positions : Front: L C R, Side: L R, LFE
Sampling rate : 48.0 KHz
Bit depth : 16 bits
Compression mode : Lossy
Delay relative to video : 938ms
Stream size : 406 MiB (12%)
Title : AC3 5.1, 448 kbps
Language : Russian
Default : Yes
Forced : No

Скриншоты









Последний раз редактировалось: surik (2013-11-02 21:37), всего редактировалось 1 раз

Создавать темы 02-Ноя-2013 21:26

[Профиль]  [ЛС] 

gul1979_06

Стаж: 4 года 7 месяцев

Сообщений: 72

Симпатии: 2

фильм класс советую посмотреть

Создавать темы 02-Ноя-2013 21:31

[Профиль]  [ЛС] 

Azazel

Стаж: 5 лет 7 месяцев

Сообщений: 62

Симпатии: 6

спасибо

Создавать темы 02-Ноя-2013 21:31

[Профиль]  [ЛС] 

Топик был перенесен из форума Зарубежное кино в форум HD-AVC

Grock

Создавать темы 02-Ноя-2013 21:33

 

surik ®

Стаж: 7 лет 4 месяца

Сообщений: 61

Симпатии: 9

:cd: Во всех Раздачах Раздаю до 1-го Скачавшего:cc: bs

Создавать темы 03-Ноя-2013 01:13

[Профиль]  [ЛС] 

scorch

Стаж: 5 лет 7 месяцев

Сообщений: 25

Симпатии: 2

Кто подскажет почему у меня так показывает??
http://img.tas-ix.net/images/2013/ad8c8e22cf524fe2f2ecc2b868987f3b.jpg

Создавать темы 04-Ноя-2013 20:48

[Профиль]  [ЛС] 

Юра74

Стаж: 3 года 8 месяцев

Сообщений: 11

Дайте скорости фаил в 3гб качаю больше 3 суток

Создавать темы 24-Фев-2014 01:49

[Профиль]  [ЛС] 

asan

Стаж: 6 лет 4 месяца

Сообщений: 8

дайте нормальной скорости плиз

Создавать темы 09-Июл-2014 20:29

[Профиль]  [ЛС] 

stefan17

Стаж: 4 года 3 месяца

Сообщений: 30

Кто-нибудь есть здесь?

Создавать темы 07-Янв-2015 21:36

[Профиль]  [ЛС] 
Показать сообщения:    
Ответить на тему

Текущее время: 19-Сен 22:16

Часовой пояс: UTC + 5



Вы не можете начинать темы
Вы не можете отвечать на сообщения
Вы не можете редактировать свои сообщения
Вы не можете удалять свои сообщения
Вы не можете голосовать в опросах
Вы не можете прикреплять файлы к сообщениям
Вы не можете скачивать файлы