Шрэк. Страшилки / Шрек: Хэллоуин / Scared Shrekless (Гэри Трусдэйл / Gary Trousdale, Раман Хьюи / Raman Hui) [2010 г., США, Анимационный, комедия, DVDRip] Dub (Пифагор) + Original

Ответить на тему
 

surik ®

Стаж: 7 лет 3 месяца

Сообщений: 61

Симпатии: 9

Шрэк. Страшилки / Шрек: Хэллоуин / Scared Shrekless- : 2010.
:
Киностудии: Alan Shayne Productions, Warner Bros. Television.
: Анимационный, комедия.
Продолжительность: 00:21:03.
: Двухголосый (Профессиональный)
Оригинальная аудио дорожка: Английская.
: Гэри Трусдэйл /Gary Trousdale/, Раман Хьюи /Raman Hui/.- Майк Майерс, Антонио Бандерас, Кристен Шааль, Дин Эдвардс, Коди Камерон, Кристофер Найтс, Конрад Вернон, Эрон Уорнер, Пэтти Корнелл, Сьюзэн Фитцер, Шон Бишоп, Майлз Кристофер Бакши, Нина Зои Бакши, Гэбриел Бассо, Девон Веркхейзер.- : На черной-черной планете, в черной-черной стране, в черной-черной долине стоит черный-черный средневековый замок... Черной-черной ночью в этом зловещем месте собрались несколько темных личностей и стали рассказывать друг другу страшные-престрашные истории... Кто же расскажет самую ледянящую душу историю? Может быть, огромный зеленый великан или саблезубый... кот? А может пряничный человечек?..-Премьера: 28 октября 2010 года.
Награды и номинации:
• 2010 - Annie Awards (США) - Номинация в категориии "Лучший анимационнвй продукт для телевидения" и две номинации за "Анимационные персонажи в телевизионной продукции".- :
: AVI
Видео: 720x416 (1.731), 23.976 fps, XviD build 50 ~1162 kbps avg
#1: 48 kHz, AC3 Dolby Digital, 5 ch, ~384 kbps -
#2: 48 kHz, AC3 Dolby Digital, 6 ch, ~384 kbps - -

MI

\Shrek.Halloween.2010.L.HDTVRip.avi
General
Complete name : \Shrek.Halloween.2010.L.HDTVRip.avi
Format : AVI
Format/Info : Audio Video Interleave
File size : 293 MiB
Duration : 21mn 3s
Overall bit rate : 1 944 Kbps
Writing application : VirtualDubMod 1.5.10.2 (build 2540/release)
Writing library : VirtualDubMod build 2540/release
Video #0
ID : 0
Format : MPEG-4 Visual
Format profile : Advanced [email protected]
Format settings, BVOP : 1
Format settings, QPel : No
Format settings, GMC : No warppoints
Format settings, Matrix : Default (MPEG)
Codec ID : XVID
Codec ID/Hint : XviD
Duration : 21mn 3s
Bit rate : 1 162 Kbps
Width : 720 pixels
Height : 416 pixels
Display aspect ratio : 1.731
Frame rate : 23.976 fps
Color space : YUV
Chroma subsampling : 4:2:0
Bit depth : 8 bits
Scan type : Progressive
Compression mode : Lossy
Bits/(Pixel*Frame) : 0.162
Stream size : 175 MiB (60%)
Writing library : XviD 1.1.2 (UTC 2006-11-01)
Audio #1
ID : 1
Format : AC-3
Format/Info : Audio Coding 3
Mode extension : CM (complete main)
Format settings, Endianness : Big
Codec ID : 2000
Duration : 21mn 3s
Bit rate mode : Constant
Bit rate : 384 Kbps
Channel(s) : 5 channels
Channel positions : Front: L C R, Side: L R
Sampling rate : 48.0 KHz
Bit depth : 16 bits
Compression mode : Lossy
Stream size : 57.9 MiB (20%)
Alignment : Split accross interleaves
Interleave, duration : 42 ms (1.00 video frame)
Interleave, preload duration : 500 ms
Audio #2
ID : 2
Format : AC-3
Format/Info : Audio Coding 3
Mode extension : CM (complete main)
Format settings, Endianness : Big
Codec ID : 2000
Duration : 21mn 3s
Bit rate mode : Constant
Bit rate : 384 Kbps
Channel(s) : 6 channels
Channel positions : Front: L C R, Side: L R, LFE
Sampling rate : 48.0 KHz
Bit depth : 16 bits
Compression mode : Lossy
Stream size : 57.9 MiB (20%)
Alignment : Split accross interleaves
Interleave, duration : 42 ms (1.00 video frame)
Interleave, preload duration : 500 ms

Скриншоты







Создавать темы 02-Ноя-2013 22:29

[Профиль]  [ЛС] 

Mr_Itachi

Стаж: 4 года 5 месяцев

Сообщений: 9

dayte sokosoti please

Создавать темы 10-Ноя-2013 13:26

[Профиль]  [ЛС] 

Mr_Itachi

Стаж: 4 года 5 месяцев

Сообщений: 9

po4emu ne ka4aet

Создавать темы 10-Ноя-2013 13:27

[Профиль]  [ЛС] 

baburmahmudov36

Стаж: 5 лет 3 месяца

Сообщений: 141

Симпатии: 4

эй кто нибудь будет раздавать?

Создавать темы 18-Июн-2014 21:46

[Профиль]  [ЛС] 
Показать сообщения:    
Ответить на тему

Текущее время: 24-Авг 11:47

Часовой пояс: UTC + 5



Вы не можете начинать темы
Вы не можете отвечать на сообщения
Вы не можете редактировать свои сообщения
Вы не можете удалять свои сообщения
Вы не можете голосовать в опросах
Вы не можете прикреплять файлы к сообщениям
Вы не можете скачивать файлы