Рыбалка нового поколения / Фидер в коммерческом водоеме. [2013, Рыбалка, WEB-DLRip, RUS] (Видеоурок)

Ответить на тему
 

rob ®

Стаж: 5 лет 3 месяца

Сообщений: 34

Симпатии: 5

"Рыбалка нового поколения"/ Фидер в коммерческом водоеме.
Страна: Украина
Тематика: Рыбалка
Тип раздаваемого материала: Видеоурок
Продолжительность: 01:36:17
Год выпуска: 2013
Язык: Русский
Перевод: Не требуется
Режиссер / Телекомпания: Сергей Попов
Описание: Сюжет видео приложения к иллюстрированному альбому о современной рыбалке «Рыбалка нового поколения - Next Generation Fishing». Сюжет посвящен ловле карпа, амура и толстолоба на фидер с применением методных кормушек типа флэт.
Действие происходит на коммерческом водоеме Пустовиты.
Качество: WEB-DLRip
Формат: MPEG-4
Видео кодек: AVC
Аудио кодек: AAC
Видео: 1280 x 720 (1.765) at 25.000 fps: AVC at 2282 Кбит/сек
Аудио: 2 канала, 44,1 КГц: AAC at 192 Кбит/сек-За видео спасибо Сергею Попову-

Скриншоты




MediaInfo

Общее
Формат : MPEG-4
Профиль формата : Base Media / Version 2
Идентификатор кодека : mp42
Размер файла : 1,67 Гбайт
Продолжительность : 1 ч. 36 м.
Режим общего битрейта : Переменный
Общий поток : 2476 Кбит/сек
Дата кодирования : UTC 2013-10-20 13:47:27
Дата пометки : UTC 2013-10-20 13:47:27
gsst : 0
gstd : 5777170
gssd : B4A7D6F02HH1382442632794239
gshh : r2---sn-n8v7sn7k.c.youtube.com
Видео
Идентификатор : 1
Формат : AVC
Формат/Информация : Advanced Video Codec
Профиль формата : [email protected]
Параметр CABAC формата : Да
Параметр ReFrames формата : 1 кадр
Параметр GOP формата : M=1, N=60
Идентификатор кодека : avc1
Идентификатор кодека/Информация : Advanced Video Coding
Продолжительность : 1 ч. 36 м.
Битрейт : 2282 Кбит/сек
Максимальный битрейт : 7399 Кбит/сек
Ширина : 1280 пикселей
Высота : 720 пикселей
Соотношение сторон : 16:9
Режим частоты кадров : Постоянный
Частота кадров : 25,000 кадров/сек
Цветовое пространство : YUV
Субдискретизация насыщенности : 4:2:0
Битовая глубина : 8 бит
Тип развёртки : Прогрессивная
Бит/(Пиксели*Кадры) : 0.099
Размер потока : 1,53 Гбайт (92%)
Дата пометки : UTC 2013-10-20 13:51:43
Аудио
Идентификатор : 2
Формат : AAC
Формат/Информация : Advanced Audio Codec
Профиль формата : LC
Идентификатор кодека : 40
Продолжительность : 1 ч. 36 м.
Вид битрейта : Переменный
Битрейт : 192 Кбит/сек
Максимальный битрейт : 201 Кбит/сек
Каналы : 2 канала
Расположение каналов : Front: L R
Частота : 44,1 КГц
Метод сжатия : С потерями
Размер потока : 132 Мбайт (8%)
Заголовок : IsoMedia File Produced by Google, 5-11-2011
Дата кодирования : UTC 2013-10-20 13:50:11
Дата пометки : UTC 2013-10-20 13:51:43

Создавать темы 04-Ноя-2013 18:59

[Профиль]  [ЛС] 

serega-007

Стаж: 5 лет 11 месяцев

Сообщений: 9

что за дела, выложить, то выложил, а раздавать кто будет?

Создавать темы 14-Ноя-2013 20:08

[Профиль]  [ЛС] 

Jessy

Стаж: 7 лет

Сообщений: 131

Симпатии: 4

Наверное проблемы с электричеством.У меня таже проблемма.За весь день ,пару часов,да и то по полчаса.Комп жалко!<~~>!

Создавать темы 14-Ноя-2013 21:23

[Профиль]  [ЛС] 

Jessy

Стаж: 7 лет

Сообщений: 131

Симпатии: 4

<-->-цензура что-ли?

Создавать темы 14-Ноя-2013 21:29

[Профиль]  [ЛС] 

Ev_bav

Стаж: 4 года 9 месяцев

Сообщений: 18

Спасибо! bs Отличные видеоуроки от Сергея Попова, так интересно рассказывает, с нетерпением будем ждать еще! Выкладывайте побольше! ah

Создавать темы 07-Янв-2014 15:04

[Профиль]  [ЛС] 

kok

Стаж: 5 лет 11 месяцев

Сообщений: 40

Симпатии: 2

сядте на роздачу пож!!

Создавать темы 12-Янв-2014 21:11

[Профиль]  [ЛС] 

kok

Стаж: 5 лет 11 месяцев

Сообщений: 40

Симпатии: 2

не кочает((( где сидерыы

Создавать темы 14-Янв-2014 11:21

[Профиль]  [ЛС] 

kok

Стаж: 5 лет 11 месяцев

Сообщений: 40

Симпатии: 2

?? когда раздача будет???

Создавать темы 21-Янв-2014 15:43

[Профиль]  [ЛС] 

Редкий Татарин

Стаж: 3 года 10 месяцев

Сообщений: 29

что за дела, выложить, то выложил, а раздавать кто будет?

Создавать темы 31-Янв-2014 10:17

[Профиль]  [ЛС] 
Показать сообщения:    
Ответить на тему

Текущее время: 12-Дек 01:57

Часовой пояс: UTC + 5



Вы не можете начинать темы
Вы не можете отвечать на сообщения
Вы не можете редактировать свои сообщения
Вы не можете удалять свои сообщения
Вы не можете голосовать в опросах
Вы не можете прикреплять файлы к сообщениям
Вы не можете скачивать файлы