Самолеты / Planes (Клэй Холл / Klay Hall) [2013, Мультфильм, комедия, семейный, HDRip] [Лицензия]

Ответить на тему
 

Suxrob89 ®

Стаж: 7 лет 4 месяца

Сообщений: 933

Симпатии: 564

- -Самолеты / Planes- Страна: США
Жанр: Мультфильм, комедия, семейный
Продолжительность: 01:31:35
Год выпуска: 2013
Перевод: Дублированное [Лицензия]-Режиссёр: Клэй Холл / Klay Hall-Роли озвучивали: Константин Крюков, Нонна Гришаева, Равшана Куркова, Алексей Чумаков, Александр Ноткин-Описание: Дасти Полейполе — скромный трудяга-самолет, работающий сельскохозяйственным распылителем на заштатном провинциальном аэродроме. Однако это не мешает ему мечтать о том, чтобы однажды принять участие в кругосветных гонках самых быстрых самолетов. Одна незадача — Дасти панически боится большой высоты. Поэтому, когда волею случая он все же попадает в число участников отборочного тура воздушных соревнований, ему приходится искать помощи у ветерана военно-морской авиации, отставного истребителя Шкипера. С помощью мудрого наставника Дасти сможет преодолеть свои слабости и бросить вызов надменному чемпиону Рипслингеру, а весь мир будет с замиранием сердца следить за гонкой в небесах!..- -Качество: HDRip
Формат: AVI
Видео кодек:XviD
Аудио кодек: AC3
Видео: 1743 kb/s, 720x400, 23.976 fps
Аудио: AC3, 384 kb/s (6 ch)

Подробные технические данные

D:\Samilety.2013.D.HDRip.1400MB.avi
General
Complete name : D:\Samilety.2013.D.HDRip.1400MB.avi
Format : AVI
Format/Info : Audio Video Interleave
File size : 1.37 GiB
Duration : 1h 31mn
Overall bit rate : 2 136 Kbps
Writing application : VirtualDubMod 1.5.10.2 (build 2540/release)
Writing library : VirtualDubMod build 2540/release
Video #0
ID : 0
Format : MPEG-4 Visual
Format profile : Advanced [email protected]
Format settings, BVOP : 2
Format settings, QPel : No
Format settings, GMC : No warppoints
Format settings, Matrix : Custom
Codec ID : XVID
Codec ID/Hint : XviD
Duration : 1h 31mn
Bit rate : 1 743 Kbps
Width : 720 pixels
Height : 400 pixels
Display aspect ratio : 16:9
Frame rate : 23.976 fps
Color space : YUV
Chroma subsampling : 4:2:0
Bit depth : 8 bits
Scan type : Progressive
Compression mode : Lossy
Bits/(Pixel*Frame) : 0.252
Stream size : 1.11 GiB (82%)
Writing library : XviD 1.2.1 (UTC 2008-12-04)
Audio #1
ID : 1
Format : AC-3
Format/Info : Audio Coding 3
Mode extension : CM (complete main)
Format settings, Endianness : Big
Codec ID : 2000
Duration : 1h 31mn
Bit rate mode : Constant
Bit rate : 384 Kbps
Channel(s) : 6 channels
Channel positions : Front: L C R, Side: L R, LFE
Sampling rate : 48.0 KHz
Bit depth : 16 bits
Compression mode : Lossy
Stream size : 252 MiB (18%)
Alignment : Split accross interleaves
Interleave, duration : 42 ms (1.00 video frame)
Interleave, preload duration : 500 ms

Скриншоты



Последний раз редактировалось: Suxrob89 (2013-12-04 07:38), всего редактировалось 2 раз(а)

Создавать темы 05-Ноя-2013 08:05

[Профиль]  [ЛС] 

sanjar0049

Стаж: 5 лет 8 месяцев

Сообщений: 35

Симпатии: 1

дайте скорость!!!

Создавать темы 05-Ноя-2013 14:14

[Профиль]  [ЛС] 

Mister-X

Стаж: 7 лет 1 месяц

Сообщений: 34

Спс за релиз! tf
надеюсь и жду релиз от вас : Облачно, возможны осадки в виде фрикаделек 2 (месть ГМО) !
mb

Создавать темы 05-Ноя-2013 17:01

[Профиль]  [ЛС] 

skyrocker

Стаж: 5 лет 9 месяцев

Сообщений: 96

Симпатии: 3

а Звук как в кинотеатре?

Создавать темы 05-Ноя-2013 20:42

[Профиль]  [ЛС] 

Mister-X

Стаж: 7 лет 1 месяц

Сообщений: 34

звук чисть! Лицуха MP3
Жал что не РФ+СНГний вариант!
кин/театре я видел такой самолётик!Там Россия bv
вместо этого! здесь Канада! pc
А так мульт супер!!

Создавать темы 07-Ноя-2013 12:51

[Профиль]  [ЛС] 

ar.mark

Стаж: 4 года 8 месяцев

Сообщений: 14

дай скокасть

Создавать темы 16-Ноя-2013 15:09

[Профиль]  [ЛС] 

erko120697

Стаж: 5 лет 10 месяцев

Сообщений: 14

Симпатии: 1

скорости Дайти!!!!!

Создавать темы 20-Ноя-2013 00:50

[Профиль]  [ЛС] 

bashi

Стаж: 5 лет 9 месяцев

Сообщений: 42

Suxrob89, дайте скорости пожалуйста

Создавать темы 04-Дек-2013 09:23

[Профиль]  [ЛС] 

baburmahmudov36

Стаж: 5 лет 7 месяцев

Сообщений: 141

Симпатии: 4

плиз пожалуста помогите скачать встанте на раздачу

Создавать темы 12-Янв-2014 18:24

[Профиль]  [ЛС] 

Masud

Стаж: 3 года 10 месяцев

Сообщений: 12

Симпатии: 1

Здравствуйте! Пожалуйста поддержите, детям хочу показать, встанте на раздачу.

Создавать темы 22-Фев-2014 21:14

[Профиль]  [ЛС] 

Donic

Стаж: 5 лет 1 месяц

Сообщений: 5

Скорости бы...

Создавать темы 15-Июн-2014 11:23

[Профиль]  [ЛС] 

Champion

Стаж: 5 лет 10 месяцев

Сообщений: 5

a mokjno uskorit razdachu ?

Создавать темы 18-Авг-2014 20:14

[Профиль]  [ЛС] 
Показать сообщения:    
Ответить на тему

Текущее время: 15-Дек 19:00

Часовой пояс: UTC + 5



Вы не можете начинать темы
Вы не можете отвечать на сообщения
Вы не можете редактировать свои сообщения
Вы не можете удалять свои сообщения
Вы не можете голосовать в опросах
Вы не можете прикреплять файлы к сообщениям
Вы не можете скачивать файлы