Последние дни на Марсе / The Last Days on Mars (Рори Робинсон / Rory Robinson) [2013, Великобритания, Ирландия, фантастика, триллер, WEB-DLRip] VO

Ответить на тему
 

Suxrob89 ®

Стаж: 7 лет

Сообщений: 933

Симпатии: 564

-Последние дни на Марсе / The Last Days on Mars- Страна: Великобритания, Ирландия
Жанр: фантастика, триллер
Год выпуска: 2013
Продолжительность: 01:38:29
Перевод: Любительский (одноголосое) [den904]
Cубтитры: нет-Режиссер: Рори Робинсон / Rory Robinson-В ролях: Лив Шрайбер, Ромола Гарай, Элиас Котеас, Оливия Уильямс, Джонни Харрис, Горан Костич, Том Каллен, Юсра Варсама-Описание: В последние дни пребывания на Марсе астронавты делают поразительное открытие: на собранных ими образцах грунта обнаружились микроскопические следы некой формы жизни. Вскоре землян должен забрать корабль, и оставшиеся часы они решают потратить на сбор дополнительных доказательств, для чего возвращаются в марсианскую долину.- -Качество видео: WEB-DLRip
Формат видео: AVI
Видео: 1109 kb/s, 720x304, 23.976 fps
Аудио: Russian / English: AC3, 384 kb/s (6 ch), 48.0 KHz

MediaInfo

Format : AVI
Format/Info : Audio Video Interleave
File size : 1.30 GiB
Duration : 1h 38mn
Overall bit rate : 1 892 Kbps
Writing application : VirtualDubMod 1.5.10.2 (build 2542/release)
Writing library : VirtualDubMod build 2542/release
Video
ID : 0
Format : MPEG-4 Visual
Format profile : Advanced [email protected]
Format settings, BVOP : 2
Format settings, QPel : No
Format settings, GMC : No warppoints
Format settings, Matrix : Default (H.263)
Muxing mode : Packed bitstream
Codec ID : XVID
Codec ID/Hint : XviD
Duration : 1h 38mn
Bit rate : 1 110 Kbps
Width : 720 pixels
Height : 304 pixels
Display aspect ratio : 2.35:1
Frame rate : 23.976 fps
Color space : YUV
Chroma subsampling : 4:2:0
Bit depth : 8 bits
Scan type : Progressive
Compression mode : Lossy
Bits/(Pixel*Frame) : 0.212
Stream size : 782 MiB (59%)
Writing library : XviD 1.2.1 (UTC 2008-12-04)
Audio #1
ID : 1
Format : AC-3
Format/Info : Audio Coding 3
Mode extension : CM (complete main)
Codec ID : 2000
Duration : 1h 38mn
Bit rate mode : Constant
Bit rate : 384 Kbps
Channel(s) : 6 channels
Channel positions : Front: L C R, Side: L R, LFE
Sampling rate : 48.0 KHz
Bit depth : 16 bits
Compression mode : Lossy
Stream size : 271 MiB (20%)
Alignment : Split accross interleaves
Interleave, duration : 42 ms (1.00 video frame)
Interleave, preload duration : 500 ms
Audio #2
ID : 2
Format : AC-3
Format/Info : Audio Coding 3
Mode extension : CM (complete main)
Codec ID : 2000
Duration : 1h 38mn
Bit rate mode : Constant
Bit rate : 384 Kbps
Channel(s) : 6 channels
Channel positions : Front: L C R, Side: L R, LFE
Sampling rate : 48.0 KHz
Bit depth : 16 bits
Compression mode : Lossy
Stream size : 271 MiB (20%)
Alignment : Split accross interleaves
Interleave, duration : 42 ms (1.00 video frame)
Interleave, preload duration : 500 ms

Скриншот c названием фильма

Скриншоты

Создавать темы 06-Ноя-2013 11:25

[Профиль]  [ЛС] 

sevenst77

Стаж: 5 лет 7 месяцев

Сообщений: 40

Рэй Донован полетел на Марс ))))))))))))

Создавать темы 06-Ноя-2013 19:14

[Профиль]  [ЛС] 
Показать сообщения:    
Ответить на тему

Текущее время: 17-Авг 22:12

Часовой пояс: UTC + 5



Вы не можете начинать темы
Вы не можете отвечать на сообщения
Вы не можете редактировать свои сообщения
Вы не можете удалять свои сообщения
Вы не можете голосовать в опросах
Вы не можете прикреплять файлы к сообщениям
Вы не можете скачивать файлы