Граница пустоты: Сад грешников (фильм шестой) / Kara no Kyoukai: The Garden of Sinners [Movie] [без хардсаба] [RUS(int)+JAP+SUB] [2008, триллер, мистика, ужасы] [BD-Rip 720p]

Ответить на тему
 

[email protected] ®

Стаж: 4 года 3 месяца

Сообщений: 336

Симпатии: 143

-Граница пустоты: Сад грешников (фильм шестой)
Kara no Kyoukai: The Garden of Sinners
- Страна: Япония
Год выпуска: 2008 г.
Жанр: триллер, мистика, ужасы
Продолжительность: 00:59:04
Режиссер: Миура Такахиро
Автор оригинала: Насу Киноко
Студия:
-
Описание: Адзака Кокуто обожает все запретное и влюбилась ни много ни мало - в собственного старшего брата. Вскоре Адзака решила, что любимый Микия быстрее оценит ее как женщину, если она будет жить отдельно. С тех пор девушка училась в частной школе Рэйэн, навещая брата на каникулах, и все было бы хорошо… если бы не появление некоей Сики Рёги. Ни в чем не желая уступать сопернице, Адзака становится ученицей волшебницы Токо Аодзаки и вливается в ее небольшую, но дружную команду, чтобы доказать брату свое превосходство над «разлучницей». И тут подворачивается первая серьезная работа…
Вот только не знала Адзака, что работа ждет ее в родной школе. Среди учениц заведения с безупречной репутацией вдруг начинаются вспышки агрессии, старшеклассница наложила на себя руки, учитель бесследно исчез, а все свидетели будто в одночасье потеряли память. К ее чести, Кокуто-младшая сама понимает, что в магических расследованиях еще слабовата, и соглашается представить в школе «новую ученицу» - с короткой стрижкой и очень внимательными серыми глазами. Вместе они начинают поиски истины, лежащей за легендой о феях, крадущих воспоминания. В принципе, никто не сомневается, что Адзака и Сики раскроют и эту тайну. Вопрос в другом – как девушки все-таки разберутся между собой?!

© Hollow, World Art
-
Информационные ссылки: AniDB | World Art | ANN
-
Качество: BDRip
Формат: MKV
Тип релиза: Без хардсаба
Озвучка: Moscow City Animegroup (MVO) | А. Килька (1 VO) | Eladiel & Ray & Trouble (3VO)-Видео: 8 bit, x264, 1280x720, ~4385 Kbp, 23.976 fps
Аудио JAP: AC3, 48000Hz, ~640 Kbps, 5.1 ch
Аудио RUS 1: AC3, 48000Hz, 192 Kbps, 2 ch - MCA (в составе контейнера)
Аудио RUS 2: AC3, 48000Hz, 384 Kbps, 5.1 ch - А. Килька (в составе контейнера)
Аудио RUS 3: AC3, 48000Hz, 320 Kbps, 2 ch - Anilibria (в составе контейнера)
Субтитры Bнешние ; Язык субтитров: русский.
-

MediaInfo

General
Unique ID : 194407357718646318332325289218144556284 (0x92417EC3109D6F3696DD4EC1DF3554FC)
Complete name : F:\Video\Аниме\Kara no Kyoukai [BD] [720p] [HDHWP]\Kara no Kyoukai 6 - Boukyaku Rokuon [BDrip 1280x720]\Kara no Kyoukai 6 - Boukyaku Rokuon [BDrip 1280x720].mkv
Format : Matroska
Format version : Version 2
File size : 2.51 GiB
Duration : 59mn 3s
Overall bit rate : 6 079 Kbps
Encoded date : UTC 2013-03-15 19:43:00
Writing application : mkvmerge v2.9.8 ('C'est le bon') built on Aug 13 2009 12:49:06
Writing library : libebml v0.7.7 + libmatroska v0.8.1
Attachment : Yes / Yes / Yes / Yes / Yes / Yes / Yes / Yes / Yes / Yes / Yes / Yes / Yes / Yes / Yes
Video
ID : 1
Format : AVC
Format/Info : Advanced Video Codec
Format profile : [email protected]
Format settings, CABAC : Yes
Format settings, ReFrames : 8 frames
Codec ID : V_MPEG4/ISO/AVC
Duration : 59mn 3s
Bit rate : 4 166 Kbps
Width : 1 280 pixels
Height : 720 pixels
Display aspect ratio : 16:9
Frame rate mode : Constant
Frame rate : 23.976 fps
Color space : YUV
Chroma subsampling : 4:2:0
Bit depth : 8 bits
Scan type : Progressive
Bits/(Pixel*Frame) : 0.189
Stream size : 1.72 GiB (69%)
Writing library : x264 core 112 r1867 22bfd31
Encoding settings : cabac=1 / ref=8 / deblock=1:0:0 / analyse=0x3:0x133 / me=umh / subme=9 / psy=1 / psy_rd=0.70:0.00 / mixed_ref=1 / me_range=32 / chroma_me=1 / trellis=2 / 8x8dct=1 / cqm=0 / deadzone=21,11 / fast_pskip=0 / chroma_qp_offset=-3 / threads=12 / sliced_threads=0 / nr=0 / decimate=0 / interlaced=0 / constrained_intra=0 / bframes=10 / b_pyramid=0 / b_adapt=2 / b_bias=0 / direct=1 / weightb=1 / open_gop=0 / weightp=2 / keyint=250 / keyint_min=23 / scenecut=40 / intra_refresh=0 / rc=crf / mbtree=0 / crf=15.8 / qcomp=0.75 / qpmin=8 / qpmax=26 / qpstep=4 / ip_ratio=1.40 / pb_ratio=1.30 / aq=1:1.00
Default : No
Forced : No
Audio #1
ID : 2
Format : AC-3
Format/Info : Audio Coding 3
Mode extension : CM (complete main)
Format settings, Endianness : Big
Codec ID : A_AC3
Duration : 59mn 3s
Bit rate mode : Constant
Bit rate : 640 Kbps
Channel count : 6 channels
Channel positions : Front: L C R, Side: L R, LFE
Sampling rate : 48.0 KHz
Bit depth : 16 bits
Compression mode : Lossy
Stream size : 270 MiB (11%)
Language : Japanese
Default : No
Forced : No
Audio #2
ID : 3
Format : AC-3
Format/Info : Audio Coding 3
Mode extension : CM (complete main)
Format settings, Endianness : Big
Codec ID : A_AC3
Duration : 59mn 3s
Bit rate mode : Constant
Bit rate : 320 Kbps
Channel count : 2 channels
Channel positions : Front: L R
Sampling rate : 48.0 KHz
Bit depth : 16 bits
Compression mode : Lossy
Stream size : 135 MiB (5%)
Title : Anilibria
Language : Russian
Default : No
Forced : No
Audio #3
ID : 4
Format : AC-3
Format/Info : Audio Coding 3
Mode extension : CM (complete main)
Format settings, Endianness : Big
Codec ID : A_AC3
Duration : 59mn 3s
Bit rate mode : Constant
Bit rate : 448 Kbps
Channel count : 6 channels
Channel positions : Front: L C R, Side: L R, LFE
Sampling rate : 48.0 KHz
Bit depth : 16 bits
Compression mode : Lossy
Stream size : 189 MiB (7%)
Title : MCA
Language : Russian
Default : Yes
Forced : No
Audio #4
ID : 5
Format : AC-3
Format/Info : Audio Coding 3
Mode extension : CM (complete main)
Format settings, Endianness : Big
Codec ID : A_AC3
Duration : 59mn 3s
Bit rate mode : Constant
Bit rate : 384 Kbps
Channel count : 6 channels
Channel positions : Front: L C R, Side: L R, LFE
Sampling rate : 48.0 KHz
Bit depth : 16 bits
Compression mode : Lossy
Stream size : 162 MiB (6%)
Title : Килька
Language : Russian
Default : No
Forced : No

Скриншоты





Источник

rutracker.org


Последний раз редактировалось: [email protected] (2015-04-24 21:28), всего редактировалось 2 раз(а)

Создавать темы 06-Ноя-2013 19:45

[Профиль]  [ЛС] 

SNIL

Стаж: 5 лет 9 месяцев

Сообщений: 2624

Симпатии: 341

Аудио RUS 1: AC3, 48000Hz, 192 Kbps, 2 ch - MCA (в составе контейнера)
воше стрёмная озвучка!
Спс за Anilibria

Создавать темы 06-Ноя-2013 20:59

[Профиль]  [ЛС] 

[email protected] ®

Стаж: 4 года 3 месяца

Сообщений: 336

Симпатии: 143

SNIL, Не за что! Благо есть из чего выбирать!

Создавать темы 06-Ноя-2013 22:21

[Профиль]  [ЛС] 

SNIL

Стаж: 5 лет 9 месяцев

Сообщений: 2624

Симпатии: 341

[email protected], Спасибки за достойную скорость!
Остаюсь на раздаче!
Ну и что за подстава?: почему в озвучке он либрии нету муж голоса?(

Создавать темы 07-Ноя-2013 19:02

[Профиль]  [ЛС] 

[email protected] ®

Стаж: 4 года 3 месяца

Сообщений: 336

Симпатии: 143

SNIL, она вроде присутствует
... ща глянул, вспомнил там где-то в начале в небольшом отрезке времени нету муж. озвучки (эт в анилибрии чет попутали походу), но дальше все норм вроде

Создавать темы 08-Ноя-2013 12:43

[Профиль]  [ЛС] 
Показать сообщения:    
Ответить на тему

Текущее время: 22-Окт 00:39

Часовой пояс: UTC + 5



Вы не можете начинать темы
Вы не можете отвечать на сообщения
Вы не можете редактировать свои сообщения
Вы не можете удалять свои сообщения
Вы не можете голосовать в опросах
Вы не можете прикреплять файлы к сообщениям
Вы не можете скачивать файлы