Мы – Миллеры / We're the Millers (Роусон Маршалл Тёрбер) [2013, Комедия, криминал, HDRip] [Extended Cut] MVO (Baibako)

Ответить на тему
 

Suxrob89 ®

Стаж: 7 лет 1 месяц

Сообщений: 933

Симпатии: 564

-Мы – Миллеры / We're the Millers- Страна: США / BenderSpink, New Line Cinema, Vincent Newman Entertainment
Жанр: Комедия, криминал
Год выпуска: 2013
Продолжительность: 01:58:43
Перевод: Любительский (многоголосый закадровый) Baibako-Режиссер: Роусон Маршалл Тёрбер / Rawson Marshall Thurber-В ролях: Дженнифер Энистон, Джейсон Судейкис, Уилл Поултер, Эмма Робертс, Эд Хелмс, Ник Офферман, Кэтрин Хан, Молли С. Куинн, Томер Сисле, Мэттью Уиллиг-Описание: Дэвид Берк — мелкий торговец наркотиками. Среди его клиентов — повара и скучающие домохозяйки. Детям он наркотики не продаёт и поэтому считает себя принципиальным человеком. Дэвид действительно хорошо относится к детям, но это не остается безнаказанным — он пытается помочь подросткам, попавшим в беду, и на него нападают хулиганы-панки. Они отбирают у него наркотики и деньги, и наш герой оказывается в отчаянном положении. Ведь ему нечем расплатиться с его поставщиком Брэдом. Единственный выход — подрядиться на доставку крупной партии наркотиков через границу…- -Качество видео: HDRip [Were The Millers 2013 1080p 2-IN-1 BluRay AVC DTS-HD MA 5.1-PublicHD]
Формат видео: AVI
Видео кодек: Xvid
Аудио кодек: AC3
Видео: XviD, 1363 Кбит/с, 720x304
Аудио: AC3, 6 ch, 384 Кбит/с MVO - Baibako

MediaInfo

Общее
Полное имя                               : My.Millery.2013.L.HDRip.1400MB.avi
Формат                                   : AVI
Формат/Информация                        : Audio Video Interleave
Размер файла                             : 1,46 Гбайт
Продолжительность                        : 1 ч. 58 м.
Общий поток                              : 1756 Кбит/сек
Программа кодирования                    : VirtualDubMod 1.5.10.2 (build 2540/release)
Библиотека кодирования                   : VirtualDubMod build 2540/release
Видео
Идентификатор                            : 0
Формат                                   : MPEG-4 Visual
Профиль формата                          : Advanced [email protected]
Параметр BVOP формата                    : 2
Параметр QPel формата                    : Нет
Параметр GMC формата                     : Без точки перехода
Параметр матрицы формата                 : Выборочная
Идентификатор кодека                     : XVID
Идентификатор кодека/Подсказка           : XviD
Продолжительность                        : 1 ч. 58 м.
Битрейт                                  : 1363 Кбит/сек
Ширина                                   : 720 пикселей
Высота                                   : 304 пикселя
Соотношение сторон                       : 2,35:1
Частота кадров                           : 23,976 кадра/сек
Цветовое пространство                    : YUV
Субдискретизация насыщенности            : 4:2:0
Битовая глубина                          : 8 бит
Тип развёртки                            : Прогрессивная
Метод сжатия                             : С потерями
Бит/(Пиксели*Кадры)                      : 0.260
Размер потока                            : 1,13 Гбайт (78%)
Библиотека кодирования                   : XviD 1.2.1 (UTC 2008-12-04)
Аудио
Идентификатор                            : 1
Формат                                   : AC-3
Формат/Информация                        : Audio Coding 3
Расширение режима                        : CM (complete main)
Параметр Endianness формата              : Big
Идентификатор кодека                     : 2000
Продолжительность                        : 1 ч. 58 м.
Вид битрейта                             : Постоянный
Битрейт                                  : 384 Кбит/сек
Каналы                                   : 6 каналов
Расположение каналов                     : Front: L C R, Side: L R, LFE
Частота                                  : 48,0 КГц
Битовая глубина                          : 16 бит
Метод сжатия                             : С потерями
Размер потока                            : 326 Мбайт (22%)
Выравнивание                             : Разделение по промежуткам
Продолжительность промежутка             : 42  мс. (1,00 видеокадр)
Время предзагрузки промежутка            : 500  мс.

Скриншоты



Последний раз редактировалось: Suxrob89 (2013-11-07 13:59), всего редактировалось 1 раз

Создавать темы 07-Ноя-2013 04:36

[Профиль]  [ЛС] 

shpumna

Стаж: 5 лет

Сообщений: 5

в фильме есть ну очень смешные моменты

Создавать темы 07-Ноя-2013 11:49

[Профиль]  [ЛС] 

bo-bur

Стаж: 5 лет 4 месяца

Сообщений: 5

исправь пожалуйста перевод- Любительский (многоголосый закадровый) BaibaKo
BaibaKo переводит так что ухо болит

Создавать темы 07-Ноя-2013 12:08

[Профиль]  [ЛС] 

Grock

Стаж: 6 лет 7 месяцев

Сообщений: 637

Симпатии: 113

bo-bur, Исправлено

Создавать темы 07-Ноя-2013 13:59

[Профиль]  [ЛС] 

Fuzuliy

Стаж: 5 лет 6 месяцев

Сообщений: 202

Симпатии: 12

Я не понял тут озвучка лицензия?или как раньше в фильмах 1990-ых звук у всех один?

Создавать темы 07-Ноя-2013 15:00

[Профиль]  [ЛС] 

razor2011

Стаж: 5 лет

Сообщений: 227

Симпатии: 37

Я не понял тут озвучка лицензия?или как раньше в фильмах 1990-ых звук у всех один?
звук как в 90ых но многоголосный :))

Создавать темы 07-Ноя-2013 18:04

[Профиль]  [ЛС] 

caomacao

Стаж: 6 лет 4 месяца

Сообщений: 40

Симпатии: 10

а чистый звук будет??или это озвучка тоже хороша???

Создавать темы 08-Ноя-2013 22:22

[Профиль]  [ЛС] 

Ramilzver

Стаж: 7 лет 1 месяц

Сообщений: 115

Симпатии: 4

Жаль что Перевод: Любительский (многоголосый закадровый) Baibako...

Создавать темы 08-Ноя-2013 22:27

[Профиль]  [ЛС] 

caomacao

Стаж: 6 лет 4 месяца

Сообщений: 40

Симпатии: 10

просто на киноман закинули этот же фильм...размеры конечно же отличаются...но там написано что озвучивание: профессиональное (многоголосое)...вот интересно у нас тут такое будет!??))))

Создавать темы 08-Ноя-2013 22:35

[Профиль]  [ЛС] 

darlingd

Стаж: 3 года 10 месяцев

Сообщений: 1

axa

Создавать темы 08-Ноя-2013 23:46

[Профиль]  [ЛС] 

therebel

Стаж: 3 года 11 месяцев

Сообщений: 15

отличный фильм) посмеялся от души)

Создавать темы 09-Ноя-2013 00:07

[Профиль]  [ЛС] 

newironman

Стаж: 4 года 11 месяцев

Сообщений: 17

Я не понял тут озвучка лицензия?или как раньше в фильмах 1990-ых звук у всех один?
Да такой, как начал смотреть сразу удалил! Лучше лицензию надо ждать!

Создавать темы 09-Ноя-2013 08:27

[Профиль]  [ЛС] 
Показать сообщения:    
Ответить на тему

Текущее время: 24-Сен 17:19

Часовой пояс: UTC + 5



Вы не можете начинать темы
Вы не можете отвечать на сообщения
Вы не можете редактировать свои сообщения
Вы не можете удалять свои сообщения
Вы не можете голосовать в опросах
Вы не можете прикреплять файлы к сообщениям
Вы не можете скачивать файлы