Два ствола / 2 Guns (Бальтасар Кормакур / Baltasar Kormákur) [2013, США, Боевик, триллер, драма, комедия, криминал, HDRip] [Чистый звук]

Страницы :  1, 2  След.

Ответить на тему
 

Suxrob89 ®

Стаж: 7 лет 4 месяца

Сообщений: 933

Симпатии: 564

- -Два ствола / 2 Guns-«Карты есть, деньги будут»- Страна: США
Студия: Boom Entertainment, Emmett/Furla Films, Envision Entertainment Corporation
Жанр: Боевик, триллер, драма, комедия, криминал
Год выпуска: 2013
Продолжительность: 01:49:06
Перевод: Дублированное - чистый звук [кинотеатральный]
Субтитры: Отсутствуют
Оригинальная аудиодорожка: Присутствует-Режиссер: Бальтасар Кормакур / Baltasar Kormákur
Продюсер: Эндрю Косби, Рэндолл Эмметт, Джордж Фурла-В ролях: Дензел Вашингтон, Марк Уолберг, Пола Пэттон, Билл Пэкстон, Фред Уорд, Джеймс Марсден, Роберт Джон Бёрк, Фред Уорд, Патрик Фишлер, Лаки Джонсон...-Описание: Это история двух грабителей, которые на самом деле не те, кем кажутся. Один из них — агент из управления по борьбе с наркотиками, а другой — тайный агент разведки ВМС. Сами того не желая, они занимаются расследованием дел друг друга, а также воруют деньги у мафии. Через некоторое время героям придется украсть 50 миллионов долларов у ЦРУ.- -Дата мировой премьеры: 30 июля 2013
Дата российской премьеры: 5 сентября 2013, «WDSSPR»
Дата украинской премьеры: 5 сентября 2013, «B&H Film Distribution Company»
Дата выхода DVD / Blu-Ray релиза: 18 февраля 2014, «Columbia/Sony»-Качество видео: HDRip
Формат видео: AVI
Видео кодек: Xvid
Аудио кодек: AC3
Видео: XviD, 1902 Кбит/с, 720x304
Аудио: Русский (AC3, 2 ch, 320 Кбит/с), английский (AC3, 6 ch, 448 Кбит/с)-

MediaInfo

F:\Dva.stvola.2013.D.HDRip.2100MB.avi
   General
      Complete name : F:\Dva.stvola.2013.D.HDRip.2100MB.avi
      Format : AVI
      Format/Info : Audio Video Interleave
      File size : 2.05 GiB
      Duration : 1h 49mn
      Overall bit rate : 2 684 Kbps
      Movie name : Dva.stvola.2013.D.HDRip.2100MB.INTERCINEMA
      Director : INTERCINEMA
      Genre : Thriller/Drama/Comedy/Crime
      Writing application : VirtualDubMod 1.5.10.2 (build 2540/release)
      Original source form/Name : Movie
      Copyright : INTERCINEMA
   Video #0
      ID : 0
      Format : MPEG-4 Visual
      Format profile : Advanced [email protected]
      Format settings, BVOP : 2
      Format settings, QPel : No
      Format settings, GMC : No warppoints
      Format settings, Matrix : Custom
      Codec ID : XVID
      Codec ID/Hint : XviD
      Duration : 1h 49mn
      Bit rate : 1 903 Kbps
      Width : 720 pixels
      Height : 304 pixels
      Display aspect ratio : 2.35:1
      Frame rate : 23.976 fps
      Color space : YUV
      Chroma subsampling : 4:2:0
      Bit depth : 8 bits
      Scan type : Progressive
      Compression mode : Lossy
      Bits/(Pixel*Frame) : 0.363
      Stream size : 1.45 GiB (71%)
      Writing library : XviD 1.2.1 (UTC 2008-12-04)
   Audio #1
      ID : 1
      Format : AC-3
      Format/Info : Audio Coding 3
      Mode extension : CM (complete main)
      Format settings, Endianness : Big
      Codec ID : 2000
      Duration : 1h 49mn
      Bit rate mode : Constant
      Bit rate : 320 Kbps
      Channel(s) : 2 channels
      Channel positions : Front: L R
      Sampling rate : 48.0 KHz
      Bit depth : 16 bits
      Compression mode : Lossy
      Stream size : 250 MiB (12%)
      Alignment : Split accross interleaves
      Interleave, duration : 42 ms (1.00 video frame)
      Interleave, preload duration : 500 ms
   Audio #2
      ID : 2
      Format : AC-3
      Format/Info : Audio Coding 3
      Mode extension : CM (complete main)
      Format settings, Endianness : Big
      Codec ID : 2000
      Duration : 1h 49mn
      Bit rate mode : Constant
      Bit rate : 448 Kbps
      Channel(s) : 6 channels
      Channel positions : Front: L C R, Side: L R, LFE
      Sampling rate : 48.0 KHz
      Bit depth : 16 bits
      Compression mode : Lossy
      Stream size : 350 MiB (17%)
      Alignment : Split accross interleaves
      Interleave, duration : 42 ms (1.00 video frame)
      Interleave, preload duration : 500 ms

Скриншот с названием фильма

Скриншоты



Последний раз редактировалось: Suxrob89 (2013-11-09 14:39), всего редактировалось 1 раз

Создавать темы 07-Ноя-2013 04:45

[Профиль]  [ЛС] 

BMW9

Стаж: 4 года 5 месяцев

Сообщений: 2

Нет раздачи

Создавать темы 07-Ноя-2013 15:32

[Профиль]  [ЛС] 

Butcher9

Стаж: 4 года 9 месяцев

Сообщений: 38

Симпатии: 2

Дэнзел Вашингтон. люблю фильмы с его участием!!!!

Создавать темы 07-Ноя-2013 18:17

[Профиль]  [ЛС] 

pashu_uz

Стаж: 4 года 7 месяцев

Сообщений: 126

Симпатии: 25

подборка актеров в точку, те самые ;)

_________________
Подпись отключена за нарушение правил форума

Создавать темы 09-Ноя-2013 14:50

[Профиль]  [ЛС] 

VAIO

Стаж: 5 лет 11 месяцев

Сообщений: 1568

Симпатии: 1399

Хороший фильм, советую : )

Создавать темы 09-Ноя-2013 15:20

[Профиль]  [ЛС] 

shurikq

Стаж: 5 лет 3 месяца

Сообщений: 114

Симпатии: 1

залейте пожалуйста фильм " Только Бог Простит "!!!!

Создавать темы 09-Ноя-2013 15:40

[Профиль]  [ЛС] 

Dima7097

Стаж: 4 года 1 месяц

Сообщений: 5

Inobat,дорогая зачем тебе англиский

Создавать темы 09-Ноя-2013 16:24

[Профиль]  [ЛС] 

Suxrob89 ®

Стаж: 7 лет 4 месяца

Сообщений: 933

Симпатии: 564

Специально для Inobata с английском дорожкой !!!

Создавать темы 09-Ноя-2013 17:21

[Профиль]  [ЛС] 

Machine

Стаж: 5 лет 3 месяца

Сообщений: 209

Симпатии: 68

cyber_boy1996, Вкратце.... Самый, что ни на есть оригинальный перевод))

Создавать темы 09-Ноя-2013 19:27

[Профиль]  [ЛС] 

xodjin

Стаж: 4 года 2 месяца

Сообщений: 8

фильм интрнгующий

Создавать темы 13-Ноя-2013 21:41

[Профиль]  [ЛС] 

xodjin

Стаж: 4 года 2 месяца

Сообщений: 8

интригующий

Создавать темы 13-Ноя-2013 21:41

[Профиль]  [ЛС] 

farrux_b

Стаж: 5 лет 9 месяцев

Сообщений: 26

Симпатии: 5

Я так и не понял, озвучка кинотеатральная (лицензия) или чистый звук?

Создавать темы 17-Ноя-2013 18:27

[Профиль]  [ЛС] 

pashu_uz

Стаж: 4 года 7 месяцев

Сообщений: 126

Симпатии: 25

farrux_b, оригинальный перевод с чистым звуком

_________________
Подпись отключена за нарушение правил форума

Создавать темы 18-Ноя-2013 19:10

[Профиль]  [ЛС] 

outoforder

Стаж: 5 лет

Сообщений: 812

Симпатии: 172

Давненько таких классных фильмов не было, харизматичный, веселый ay

Создавать темы 10-Дек-2013 16:34

[Профиль]  [ЛС] 

AeRoNHanD

Стаж: 5 лет 2 месяца

Сообщений: 198

Симпатии: 3

Дензел Вашингтон актер хорошо снимается в фильмах))))

Создавать темы 10-Дек-2013 17:50

[Профиль]  [ЛС] 
Показать сообщения:    
Ответить на тему

Текущее время: 15-Дек 07:37

Часовой пояс: UTC + 5



Вы не можете начинать темы
Вы не можете отвечать на сообщения
Вы не можете редактировать свои сообщения
Вы не можете удалять свои сообщения
Вы не можете голосовать в опросах
Вы не можете прикреплять файлы к сообщениям
Вы не можете скачивать файлы