Завершить историю / Clear History (Грег Моттола) [2013 г., комедия, HDRip]

Ответить на тему
 

Каротажник ®

Стаж: 3 года 10 месяцев

Сообщений: 195

Симпатии: 211

Завершить историю / Clear History

Год выпуска: 2013
Страна: США
Жанр: комедия
Продолжительность: 01:40:07
Перевод: Профессиональный многоголосный
Режиссер: Грег Моттола

В ролях: Ларри Дэвид, Билл Хейдер, Джон Хэмм, Кейт Хадсон, Майкл Китон, Дэнни МакБрайд, Ева Мендес, Эми Райан, Дж.Б. Смув, Пол Шеер
Описание: Для главного героя начался сумасшедший день, началось с того, что по дороге на работу его останавливает полиция заподозрив, что он выпивший, заставив пройти тесты на алкоголь, далее по приезду на работу он ссорится с боссом из за того, что тот новую модель электромобиля он хочет назвать своим именем. Сора заканчивается тем, что бос увольняет его с обязательством вернуть все вложения нашего героя. Немного остыв он старается вернуть свое рабочее место, но получает отказ. На этом его терпение лопнуло, с этой минуты главной целью его жизни становится месть бывшему директору.
Доп. информация:
Премьера в мире: 10 августа 2013
КиноПоиск - рейтинг: 5.315 (149)


Качество: HDRip
Формат: AVI
Видео кодек: MPEG-4 Visual
Аудио кодек: AC3
Видео: XviD, 720x400, 23.976 fps, 1 758 Kbps
Аудио: AC-3, 48.0 KHz, 2 ch, 192 Kbps, CBR

Media Info

General
Complete name : E:\Kino\russ\Clear.History.2013.P.HDRip.1400Mb_.avi
Format : AVI
Format/Info : Audio Video Interleave
File size : 1.37 GiB
Duration : 1h 40mn
Overall bit rate : 1 959 Kbps
Writing application : VirtualDubMod 1.5.10.3 | www.virtualdub-fr.org || (build 2550/release)
Writing library : VirtualDubMod build 2550/release
Video #0
ID : 0
Format : MPEG-4 Visual
Format profile : Advanced [email protected]
Format settings, BVOP : 1
Format settings, QPel : No
Format settings, GMC : No warppoints
Format settings, Matrix : Custom
Codec ID : XVID
Codec ID/Hint : XviD
Duration : 1h 40mn
Bit rate : 1 758 Kbps
Width : 720 pixels
Height : 400 pixels
Display aspect ratio : 16:9
Frame rate : 23.976 fps
Color space : YUV
Chroma subsampling : 4:2:0
Bit depth : 8 bits
Scan type : Progressive
Compression mode : Lossy
Bits/(Pixel*Frame) : 0.255
Stream size : 1.23 GiB (90%)
Writing library : XviD 1.2.1 (UTC 2008-12-04)
Audio #1
ID : 1
Format : AC-3
Format/Info : Audio Coding 3
Mode extension : CM (complete main)
Format settings, Endianness : Big
Codec ID : 2000
Duration : 1h 40mn
Bit rate mode : Constant
Bit rate : 192 Kbps
Channel(s) : 2 channels
Channel positions : Front: L R
Sampling rate : 48.0 KHz
Bit depth : 16 bits
Compression mode : Lossy
Stream size : 138 MiB (10%)
Alignment : Split accross interleaves
Interleave, duration : 42 ms (1.00 video frame)
Interleave, preload duration : 500 ms

Скриншоты




Последний раз редактировалось: Каротажник (2013-11-07 13:45), всего редактировалось 1 раз

Создавать темы 07-Ноя-2013 13:04

[Профиль]  [ЛС] 

Evropa_uzb

Стаж: 5 лет 2 месяца

Сообщений: 98

Симпатии: 5

какое фильм хорошие?

Создавать темы 08-Ноя-2013 08:44

[Профиль]  [ЛС] 

Lakec

Стаж: 5 лет 7 месяцев

Сообщений: 27

Симпатии: 3

стоит качать ?

Создавать темы 08-Ноя-2013 13:04

[Профиль]  [ЛС] 

mitrofan_85

Стаж: 6 лет 11 месяцев

Сообщений: 17

перевод ужасный-ни фига не понятно

Создавать темы 09-Ноя-2013 20:43

[Профиль]  [ЛС] 
Показать сообщения:    
Ответить на тему

Текущее время: 22-Авг 12:29

Часовой пояс: UTC + 5



Вы не можете начинать темы
Вы не можете отвечать на сообщения
Вы не можете редактировать свои сообщения
Вы не можете удалять свои сообщения
Вы не можете голосовать в опросах
Вы не можете прикреплять файлы к сообщениям
Вы не можете скачивать файлы