Ходячие Мертвецы: Вэбизод "Клятва" / The Walking Dead: Oath. Webisodes / Сезон: W3 / Серии: 1-3 из 3 (Грег Никотеро) [2013, фантастика, ужасы, HDRip] DVO (Jetvis Studio) + Original

Ответить на тему
 

emilsky ®

Стаж: 7 лет 5 месяцев

Сообщений: 2237

Симпатии: 610

Ходячие Мертвецы: Вэбизод "Клятва" / The Walking Dead: Oath. Webisodes
Год выпуска: 2013
Страна: США
Жанр: фантастика, ужасы
Продолжительность: 00:08;15
Перевод: Профессиональный (двухголосый закадровый) Jetvis Studio
Русские субтитры: нет
Автор перевода: А. Домнина
Озвучка:
Озвучивали: Иван Назаров, Анастасия Домнина
Режиссёр: Грег Никотеро
В ролях: Уайатт Расселл, Эшли Белл
Описание: Это история Пола и Карины, двух выживших после масштабной атаки зомби. Они отчаянно пытаются найти станцию первой помощи, так как один из них серьезно ранен, и им срочно нужно найти больницу, ведь он медленно истекает кровью. Наконец, найдя больницу, которая не была заполнена мертвецами, они сталкиваются с вроде бы доброжелательным доктором, у которой может быть своя темная цель в их жизни...
Доп. информация: Это третий цикл вэбизодов. Вышел перед началом 4 основного сезона.
Качество: HDRip
Формат: AVI
Видео кодек: XviD
Аудио кодек: MP3
Видео: XviD, 720X400, 1 522 Kbps, 29.970 fps, 0.176 Bit/Pixel
Аудио: MP3, 2 channels, 48.0 KHz, 128 Kbps

MediaInfo

General
Complete name : F:\сериалы sci-fi\sga\WD4001.avi
Format : AVI
Format/Info : Audio Video Interleave
File size : 106 MiB
Duration : 8mn 15s
Overall bit rate : 1 799 Kbps
Writing application : XviD4PSP 6.0 / 53.6.0
Video
ID : 0
Format : MPEG-4 Visual
Format profile : Advanced [email protected]
Format settings, BVOP : Yes
Format settings, QPel : No
Format settings, GMC : No warppoints
Format settings, Matrix : Default (H.263)
Codec ID : XVID
Codec ID/Hint : XviD
Duration : 8mn 15s
Bit rate : 1 522 Kbps
Width : 720 pixels
Height : 400 pixels
Display aspect ratio : 16:9
Frame rate : 29.970 fps
Resolution : 8 bits
Colorimetry : 4:2:0
Scan type : Progressive
Bits/(Pixel*Frame) : 0.176
Stream size : 90.0 MiB (85%)
Writing library : XviD 64
Audio #1
ID : 1
Format : MPEG Audio
Format version : Version 1
Format profile : Layer 3
Mode : Joint stereo
Format_Settings_ModeExtension : MS Stereo
Codec ID : 55
Codec ID/Hint : MP3
Duration : 8mn 15s
Bit rate mode : Constant
Bit rate : 128 Kbps
Channel(s) : 2 channels
Sampling rate : 48.0 KHz
Stream size : 7.57 MiB (7%)
Alignment : Aligned on interleaves
Interleave, duration : 24 ms (0.72 video frame)
Title : Jetvis Studio
Writing library : LAME3.98.2
Audio #2
ID : 2
Format : MPEG Audio
Format version : Version 1
Format profile : Layer 3
Mode : Joint stereo
Format_Settings_ModeExtension : MS Stereo
Codec ID : 55
Codec ID/Hint : MP3
Duration : 8mn 15s
Bit rate mode : Constant
Bit rate : 128 Kbps
Channel(s) : 2 channels
Sampling rate : 44.1 KHz
Stream size : 7.57 MiB (7%)
Alignment : Aligned on interleaves
Interleave, duration : 26 ms (0.78 video frame)
Writing library : LAME3.98.2

Создавать темы 08-Ноя-2013 14:57

[Профиль]  [ЛС] 

knyaz31337

Стаж: 6 лет 6 месяцев

Сообщений: 396

Симпатии: 20

emilsky, опередил на пару часиков, я то же их ждал) Вчера что ли третью серию выложили?

Создавать темы 09-Ноя-2013 00:35

[Профиль]  [ЛС] 

FLYer

Стаж: 7 лет

Сообщений: 94

Симпатии: 18

emilsky а у тебя не найдется 2й части вэбизодов? The Walking Dead: Cold Storage
http://tas-ix.net/viewtopic.php?p=459762 вот тут есть, жду месяц уже, раздачи так и нет, если у тебя есть выложи плз)

Создавать темы 09-Ноя-2013 00:41

[Профиль]  [ЛС] 

knyaz31337

Стаж: 6 лет 6 месяцев

Сообщений: 396

Симпатии: 20

FLYer, раздача моя, сейчас глянул — двое сдируют, так что качай.

Создавать темы 09-Ноя-2013 01:37

[Профиль]  [ЛС] 

FLYer

Стаж: 7 лет

Сообщений: 94

Симпатии: 18

FLYer, раздача моя, сейчас глянул — двое сдируют, так что качай.
да уже месяц стоит, ни 1 байта не скачалось до сих пор, сиды видит, отдачи нет от них

Создавать темы 09-Ноя-2013 07:56

[Профиль]  [ЛС] 

vanfank

Стаж: 4 года 7 месяцев

Сообщений: 141

Симпатии: 5

а 1 сезон есть на русском ?

Создавать темы 30-Ноя-2013 00:20

[Профиль]  [ЛС] 
Показать сообщения:    
Ответить на тему

Текущее время: 14-Дек 13:10

Часовой пояс: UTC + 5



Вы не можете начинать темы
Вы не можете отвечать на сообщения
Вы не можете редактировать свои сообщения
Вы не можете удалять свои сообщения
Вы не можете голосовать в опросах
Вы не можете прикреплять файлы к сообщениям
Вы не можете скачивать файлы