Наши соседи - семья Ямада / My Neighbors the Yamadas / Houhokekyo Tonari no Yamada-kun (Такахата Исао) [Movie] [Без хардсаба] [RUS(int)] [1999 г., комедия, повседневность, DVDRip]

Ответить на тему
 

pbyeh ®

Стаж: 5 лет 5 месяцев

Сообщений: 33

Симпатии: 2

Наши соседи - семья Ямада / My Neighbors the Yamadas / Houhokekyo Tonari no Yamada-kun- Страна: Япония
Год выпуска: 1999 г.
Жанр: комедия, повседневность
Тип: Movie
Продолжительность: 103 мин
Перевод: Профессиональный (многоголосый, закадровый) RUSCICO
Субтитры: отсутствуют-Режиссер: Такахата Исао-Студия: -Описание: Фильм состоит из серии коротких историй, посвящённых повседневной жизни семьи Ямада. Бабушка, мама, папа, сын и дочка – самые обыкновенные люди, с узнаваемыми чертами и привычками. Несмотря на то, что в фильме отражены многие японские реалии, начиная с еды и заканчивая сказками, эти сюжеты понятны любому зрителю.
Комедийные ситуации перемежаются примерами житейской мудрости, бытовые сценки сменяются фантазиями, что-то происходит в первый раз, что-то повторяется изо дня в день. Здесь нет морали и нравоучений, жизнь показана такой, какая она есть – череда будней, в которых можно увидеть особое очарование и глубину.
Дизайн персонажей выполнен в подчёркнуто минималистской манере с мягкой акварельной заливкой, что не совсем обычно для большинства произведений Ghibli, но анимация сохраняет традиционно высокий для этой студии уровень. Кроме того, в фильме реализованы многие интересные художественные приёмы, как, например, стихотворные вставки с хайку Басё или смена дизайна в некоторых моментах.
«Семью Ямада» можно смело назвать шедевром аниме, неподвластным ни времени, ни моде, и в характерах главных героев каждый может увидеть своих соседей – или себя.
© Расселл Д. Джонс, World Art-Рейтинг на World-art: 8.5 из 10-Качество: DVDRip
Тип релиза: Без хардсаба
Формат видео: MKV
Видео: x264, 25 fps, 1 900 Kbps, 720x392 pixels , 0.269 bit/pixel
Аудио: AC-3, 448 Kbps, 6 channels, 48 KHz Язык Русский (в составе контейнера) ; Озвучка: Профессиональный (многоголосый, закадровый)
Субтитры: отсутствуют

Подробные тех. данные

General
Unique ID : 229797767246365033741438632457965050988 (0xACE170AB00F64EEC85AE8407F80A9C6C)
Complete name : D:\Torrent\Houhokekyo_Tonari_no_Yamada-kun.mkv
Format : Matroska
Format version : Version 2
File size : 1.70 GiB
Duration : 1h 43mn
Overall bit rate : 2 350 Kbps
Encoded date : UTC 2010-09-18 21:08:50
Writing application : mkvmerge v3.0.0 ('Hang up your Hang-Ups') built on Dec 15 2009 20:49:37
Writing library : libebml v0.7.9 + libmatroska v0.8.1
Video
ID : 1
Format : AVC
Format/Info : Advanced Video Codec
Format profile : High@L3.0
Format settings, CABAC : Yes
Format settings, ReFrames : 3 frames
Codec ID : V_MPEG4/ISO/AVC
Duration : 1h 43mn
Bit rate : 1 900 Kbps
Width : 720 pixels
Height : 392 pixels
Display aspect ratio : 1.85:1
Frame rate mode : Constant
Frame rate : 25.000 fps
Color space : YUV
Chroma subsampling : 4:2:0
Bit depth : 8 bits
Scan type : Progressive
Bits/(Pixel*Frame) : 0.269
Stream size : 1.34 GiB (79%)
Writing library : x264 core 79 r1342kMod e8501ef
Encoding settings : cabac=1 / ref=3 / deblock=1:0:0 / analyse=0x3:0x113 / me=hex / subme=7 / psy=1 / psy_rd=1.0:0.0 / mixed_ref=1 / me_range=16 / chroma_me=1 / trellis=1 / 8x8dct=1 / cqm=0 / deadzone=21,11 / chroma_qp_offset=-2 / threads=1 / nr=0 / decimate=1 / mbaff=0 / constrained_intra=0 / bframes=3 / b_pyramid=0 / b_adapt=1 / b_bias=0 / direct=1 / wpredb=1 / wpredp=2 / keyint=250 / keyint_min=25 / scenecut=40 / rc_lookahead=40 / rc=abr / mbtree=1 / bitrate=1900 / ratetol=1.0 / qcomp=0.60 / qpmin=10 / qpmax=51 / qpstep=4 / ip_ratio=1.40 / aq=1:1.00
Default : Yes
Forced : No
Audio
ID : 2
Format : AC-3
Format/Info : Audio Coding 3
Mode extension : CM (complete main)
Format settings, Endianness : Big
Codec ID : A_AC3
Duration : 1h 43mn
Bit rate mode : Constant
Bit rate : 448 Kbps
Channel(s) : 6 channels
Channel positions : Front: L C R, Side: L R, LFE
Sampling rate : 48.0 KHz
Bit depth : 16 bits
Compression mode : Lossy
Stream size : 331 MiB (19%)
Default : Yes
Forced : No

Скриншоты






Приятного просмотра !!
-
МОИ РАЗДАЧИ
Могила светлячков
Ариэтти из страны лилипутов
Рыбка Поньо на утесе
Шепот сердца
Порко Россо
Навсикая из долины ветров

Создавать темы 08-Ноя-2013 19:35

[Профиль]  [ЛС] 

kumamoto

Стаж: 4 года 4 месяца

Сообщений: 7

Ну наконец-то посмотрю с переводом))
Обожаю эту семейку!
Спасибо!

Создавать темы 21-Ноя-2013 22:56

[Профиль]  [ЛС] 

pbyeh ®

Стаж: 5 лет 5 месяцев

Сообщений: 33

Симпатии: 2

Семейка просто супер! А юмор это шедевр!

Создавать темы 23-Ноя-2013 20:08

[Профиль]  [ЛС] 
Показать сообщения:    
Ответить на тему

Текущее время: 23-Окт 09:26

Часовой пояс: UTC + 5



Вы не можете начинать темы
Вы не можете отвечать на сообщения
Вы не можете редактировать свои сообщения
Вы не можете удалять свои сообщения
Вы не можете голосовать в опросах
Вы не можете прикреплять файлы к сообщениям
Вы не можете скачивать файлы