Ночной поезд до Лиссабона / Night Train to Lisbon (Билле Аугуст / Bille August) [2013, Германия, Швейцария, Португалия, триллер, мелодрама, детектив, BDRip-AVC] [ITA] DVO + Original (Eng) + Sub (Rus, Eng)

Ответить на тему
 

dandyman ®

Стаж: 6 лет 11 месяцев

Сообщений: 68

Симпатии: 4

-Ночной поезд до Лиссабона / Night Train to Lisbon- -Год выпуска: 2013
Страна: Германия, Швейцария, Португалия
Жанр: триллер, мелодрама, детектив
Продолжительность: 01:51:37
Перевод: Любительский (двухголосый закадровый) | HamsterStudio
Оригинальная аудиодорожка: английская
Субтитры: английские, русские | kon2011-Режиссёр: Билле Аугуст-В ролях: Джереми Айронс, Мелани Лоран, Джек Хьюстон, Мартина Гедек, Лена Улин, Аугуст Диль, Бруно Ганц, Кристофер Ли, Шарлотта Рэмплинг, Том Кортни-Описание: Раймунд Григориус, швейцарский профессор древних языков, спасает португальскую женщину от самоубийства и находит у нее книгу, написанную португальским автором Амадеу ди Праду, о сопротивлении диктаторскому режиму Антонио ди Оливейра Салазара. Полностью поглощенный книгой главный герой посвящает свою жизнь изучению португальской истории в целом, и в часности работам Амадеу ди Праду ...-Исходник: Night Train to Lisbon 2013 1080p ITA Blu-ray AVC DTS-HD MA 5.1-CtrlHD
Качество: BDRip-AVC
Формат: MKV
Видео кодек: x264
Аудио кодек: AC3
Видео: AVC 1120x630 (16:9), 24 fps, ~3360 Kbps, 0.20 bit/pixel
Аудио №1: Russian AC3 6ch 48kHz 448Kbps | DVO HamsterStudio
Аудио №2: English AC3 6ch 48kHz 448Kbps | Original
Формат субтитров: softsub (SRT) (английские, русские)-

МедиаИнфо

General
Complete name : Night.Train.to.Lisbon.2013.ITA.BDRip.x264.DD5.1.Rus.Eng-E76.mkv
Format : Matroska
Format version : Version 4 / Version 2
File size : 3.32 GiB
Duration : 1h 51mn
Overall bit rate : 4 260 Kbps
Movie name : Night.Train.to.Lisbon.2013.ITA.BDRip.x264.DD5.1.Eng-E76
Encoded date : UTC 2013-11-04 05:14:25
Writing application : mkvmerge v6.2.0 ('Promised Land') built on Apr 28 2013 12:22:01
Writing library : libebml v1.3.0 + libmatroska v1.4.0
Video
ID : 1
Format : AVC
Format/Info : Advanced Video Codec
Format profile : [email protected]
Format settings, CABAC : Yes
Format settings, ReFrames : 9 frames
Codec ID : V_MPEG4/ISO/AVC
Duration : 1h 51mn
Bit rate : 3 279 Kbps
Width : 1 120 pixels
Height : 630 pixels
Display aspect ratio : 16:9
Frame rate mode : Constant
Frame rate : 24.000 fps
Color space : YUV
Chroma subsampling : 4:2:0
Bit depth : 8 bits
Scan type : Progressive
Bits/(Pixel*Frame) : 0.194
Stream size : 2.56 GiB (77%)
Title : Encode by Enclave76
Writing library : x264 core 138 r2358kMod 9e941d1
Encoding settings : cabac=1 / ref=9 / deblock=1:-3:-3 / analyse=0x3:0x113 / me=umh / subme=11 / psy=1 / fade_compensate=0.00 / psy_rd=1.00:0.00 / mixed_ref=1 / me_range=48 / chroma_me=1 / trellis=2 / 8x8dct=1 / cqm=0 / deadzone=21,11 / fast_pskip=1 / chroma_qp_offset=-2 / threads=6 / lookahead_threads=1 / sliced_threads=0 / nr=0 / decimate=1 / interlaced=0 / bluray_compat=0 / constrained_intra=0 / bframes=14 / b_pyramid=2 / b_adapt=2 / b_bias=0 / direct=1 / weightb=1 / open_gop=0 / weightp=2 / keyint=240 / keyint_min=24 / scenecut=40 / intra_refresh=0 / rc_lookahead=120 / rc=crf / mbtree=1 / crf=16.2500 / qcomp=0.70 / qpmin=0 / qpmax=69 / qpstep=4 / vbv_maxrate=50000 / vbv_bufsize=62500 / crf_max=0.0 / nal_hrd=none / ip_ratio=1.40 / aq=1:1.00 / zones=153510,160726,q=30
Language : English
Default : No
Forced : No
Matrix coefficients : BT.709
Audio #1
ID : 2
Format : AC-3
Format/Info : Audio Coding 3
Mode extension : CM (complete main)
Format settings, Endianness : Big
Codec ID : A_AC3
Duration : 1h 51mn
Bit rate mode : Constant
Bit rate : 448 Kbps
Channel(s) : 6 channels
Channel positions : Front: L C R, Side: L R, LFE
Sampling rate : 48.0 KHz
Bit depth : 16 bits
Compression mode : Lossy
Stream size : 358 MiB (11%)
Title : DVO HamsterStudio
Language : Russian
Default : Yes
Forced : No
Audio #2
ID : 3
Format : AC-3
Format/Info : Audio Coding 3
Mode extension : CM (complete main)
Format settings, Endianness : Big
Codec ID : A_AC3
Duration : 1h 51mn
Bit rate mode : Constant
Bit rate : 448 Kbps
Channel(s) : 6 channels
Channel positions : Front: L C R, Side: L R, LFE
Sampling rate : 48.0 KHz
Bit depth : 16 bits
Compression mode : Lossy
Stream size : 358 MiB (11%)
Title : Original
Language : English
Default : No
Forced : No
Text #1
ID : 4
Format : UTF-8
Codec ID : S_TEXT/UTF8
Codec ID/Info : UTF-8 Plain Text
Title : kon2011
Language : Russian
Default : No
Forced : No
Text #2
ID : 5
Format : UTF-8
Codec ID : S_TEXT/UTF8
Codec ID/Info : UTF-8 Plain Text
Language : English
Default : No
Forced : No
Menu
00:00:00.000 : en:00:00:00.000
00:10:50.458 : en:00:10:50.458
00:20:46.750 : en:00:20:46.750
00:31:33.417 : en:00:31:33.417
00:42:18.375 : en:00:42:18.375
00:53:38.792 : en:00:53:38.792
01:02:27.583 : en:01:02:27.583
01:14:45.792 : en:01:14:45.792
01:27:48.250 : en:01:27:48.250
01:44:50.333 : en:01:44:50.333
-

Скриншоты

Создавать темы 09-Ноя-2013 00:47

[Профиль]  [ЛС] 

dandyman ®

Стаж: 6 лет 11 месяцев

Сообщений: 68

Симпатии: 4

Inobat, сморю, Вы любите смотреть фильмы в оригинальной озвучки.

Создавать темы 09-Ноя-2013 13:40

[Профиль]  [ЛС] 
Показать сообщения:    
Ответить на тему

Текущее время: 23-Окт 07:44

Часовой пояс: UTC + 5



Вы не можете начинать темы
Вы не можете отвечать на сообщения
Вы не можете редактировать свои сообщения
Вы не можете удалять свои сообщения
Вы не можете голосовать в опросах
Вы не можете прикреплять файлы к сообщениям
Вы не можете скачивать файлы