Видеоурок из 20 занятий по работе с нунчаками. Автор Hien Nguyen [Нунчаку-до, WEB-DL Rip]

Ответить на тему
 

Be3yH ®

Стаж: 6 лет 7 месяцев

Сообщений: 14

Симпатии: 1

Видеоурок из 20 занятий по работе с нунчаками. Автор Hien Nguyen
Вид спорта: Нунчаку-до
Участники: Hien Nguyen
Комментарий: Отсутствует
Описание: 20 видеоуроков от мастера нунчаку - Hien Nguyen. В формате flv
Качество видео: WEB-DL Rip
Язык: Eng c азиатским акцентом
Перевод: Нет
Субтитры: Нет
Формат: FLV
Video: Flash Video 1 320x240 29.97fps 237kbps
Audio: MP3 22050Hz stereo 62kbps [Audio]

Скрины






MediaInfo

Video
Format : Sorenson Spark
Codec ID : 2
Duration : 2mn 13s
Bit rate : 232 Kbps
Width : 320 pixels
Height : 240 pixels
Display aspect ratio : 4:3
Frame rate mode : Constant
Frame rate : 29.970 fps
Bit depth : 8 bits
Bits/(Pixel*Frame) : 0.101
Stream size : 3.69 MiB (77%)
Audio
Format : MPEG Audio
Format version : Version 2
Format profile : Layer 3
Mode : Joint stereo
Mode extension : MS Stereo
Codec ID : 2
Codec ID/Hint : MP3
Duration : 2mn 13s
Bit rate mode : Constant
Bit rate : 8 000 bps
Channel count : 2 channels
Sampling rate : 22.05 KHz
Compression mode : Lossy
Stream size : 130 KiB (3%)


Последний раз редактировалось: Be3yH (2013-11-11 01:52), всего редактировалось 10 раз(а)

Создавать темы 10-Ноя-2013 09:34

[Профиль]  [ЛС] 

erkin5599

Стаж: 3 года 10 месяцев

Сообщений: 40

Симпатии: 5

торрент не скачивается

Создавать темы 10-Ноя-2013 09:40

[Профиль]  [ЛС] 

Be3yH ®

Стаж: 6 лет 7 месяцев

Сообщений: 14

Симпатии: 1

торрент не скачивается
Да... странно что-то... вроде бы оформил шаг за шагом как указано в ФАКах...

Создавать темы 10-Ноя-2013 11:08

[Профиль]  [ЛС] 

Be3yH ®

Стаж: 6 лет 7 месяцев

Сообщений: 14

Симпатии: 1

Отлично! Качайте!)))
ЗЫ хотя нет. Наверное пущу после премодерайии. Потому как модеры чтобы не ругались потом.

Создавать темы 10-Ноя-2013 11:20

[Профиль]  [ЛС] 

Grock

Стаж: 6 лет 7 месяцев

Сообщений: 637

Симпатии: 113

Be3yH, Укажите тех.данные, замените постер и добавьте скрины
Вот инструкция - Как сделать скриншоты, узнать тех. данные (включая MediaInfo) видео-файла

Создавать темы 10-Ноя-2013 11:46

[Профиль]  [ЛС] 

Be3yH ®

Стаж: 6 лет 7 месяцев

Сообщений: 14

Симпатии: 1

Всё добавил и скрины и медиаинфо.

Создавать темы 10-Ноя-2013 12:38

[Профиль]  [ЛС] 

Be3yH ®

Стаж: 6 лет 7 месяцев

Сообщений: 14

Симпатии: 1

Ну не знаю как еще дооформить... Всё сделал по правилам и требованиям.

Создавать темы 10-Ноя-2013 12:46

[Профиль]  [ЛС] 

alexey.555

Стаж: 5 лет 5 месяцев

Сообщений: 137

Симпатии: 22

Be3yH, Скрины и постер должны быть в Галерее ), а говоришь по правилам cb

Создавать темы 10-Ноя-2013 21:30

[Профиль]  [ЛС] 

Be3yH ®

Стаж: 6 лет 7 месяцев

Сообщений: 14

Симпатии: 1

Be3yH, Скрины и постер должны быть в Галерее ), а говоришь по правилам cb
http://tas-ix.net/viewtopic.php?p=179#179
"Заходим в нужный для нас форум. Я выбрал форум "Зарубежное кино". Заходим и заполняем все поля соответсвенно по правилам данного форума. Открываем сайт для хостинга рисунок. Я ползуюсь сайтом img.uz. Загружаем туда постер фильма и скрины.После берём оттуда адресс наших рисунок и копируем на поле "постер" и "Скриншоты" по назначению."

Создавать темы 11-Ноя-2013 01:46

[Профиль]  [ЛС] 

alexey.555

Стаж: 5 лет 5 месяцев

Сообщений: 137

Симпатии: 22

Просто лучше пользоваться не img.uz., а tas-ix.net/gallery.php - здесь картинки точно не пропадут. На img.uz картинки часто не отображаются

Создавать темы 11-Ноя-2013 11:14

[Профиль]  [ЛС] 

Be3yH ®

Стаж: 6 лет 7 месяцев

Сообщений: 14

Симпатии: 1

Просто лучше пользоваться не img.uz., а tas-ix.net/gallery.php - здесь картинки точно не пропадут. На img.uz картинки часто не отображаются
Спс за полезную инфу. Возьму на заметку для следующих раздач.

Создавать темы 11-Ноя-2013 19:38

[Профиль]  [ЛС] 

Sancho2705

Стаж: 3 года 11 месяцев

Сообщений: 4

Помогите раздать. Пожалуйста

Создавать темы 15-Дек-2014 22:37

[Профиль]  [ЛС] 
Показать сообщения:    
Ответить на тему

Текущее время: 22-Сен 06:04

Часовой пояс: UTC + 5



Вы не можете начинать темы
Вы не можете отвечать на сообщения
Вы не можете редактировать свои сообщения
Вы не можете удалять свои сообщения
Вы не можете голосовать в опросах
Вы не можете прикреплять файлы к сообщениям
Вы не можете скачивать файлы