Перси Джексон и Море чудовищ / Percy Jackson: Sea of Monsters (Тор Фройденталь / Thor Freudenthal) [2013, США, Фэнтези, приключения, семейный, WEB-DLRip] Dub [Чистый звук]

Ответить на тему
 

Suxrob89 ®

Стаж: 7 лет

Сообщений: 933

Симпатии: 564

-Перси Джексон и Море чудовищ / Percy Jackson: Sea of Monsters-«Где Боги - там и монстры»- Страна: США
Студия: TCF Vancouver Productions
Жанр: Фэнтези, приключения, семейный
Год выпуска: 2013
Продолжительность: 01:46:30
Перевод: Дублированное [Чистый звук]
Субтитры: Отсутствуют
Оригинальная аудиодорожка: нет-Режиссер: Тор Фройденталь / Thor Freudenthal-В ролях: Логан Лерман, Александра Даддарио, Дуглас Смит, Ливэн Рамбин, Брэндон Т. Джексон, Джейк Эйбел, Энтони Хэд, Стэнли Туччи, Коннор Крэш Данн, Палома Квиатковски-Описание: Лагерь полукровок атакует Люк Кастеллан, который раскрывает свои планы по уничтожению горы Олимп. Наставник Перси, Хирон узнает, что Люк отравил волшебное дерево, которое отвечает за барьер, защищающий Лагерь Полукровок, и которое создано из Талии Грейс, дочери Зевса, убитой циклопом. Аннабет Чейз выясняет, что Золотое Руно может восстановить дерево, и директор лагеря, Дионис, посылает Клариссу Ла Ру, дочь Ареса и соперницу Перси, найти его…- -Дата мировой премьеры: 7 августа 2013
Дата российской премьеры: 22 августа 2013, «Двадцатый Век Фокс СНГ»
Дата выхода DVD релиза: 12 декабря 2013, «Двадцатый Век Фокс СНГ»
Дата выходаBlu-Ray релиза: 12 декабря 2013, «Двадцатый Век Фокс СНГ»-Качество видео: WEB-DLRip
Формат видео: AVI
Видео кодек: XviD
Аудио кодек: AC3
Видео: 1976 kb/s, 720x304, 23.976 fps
Аудио #1: AC3, 6 ch, 384 Кбит/с, 48.0 KHz [Русский, Дубляж]
Аудио #2: AC3, 2 ch, 384 Кбит/с, 48.0 KHz [Немецкий]-

Знаете ли вы, что...

• Фильм снят по мотивам романа Рика Риордана «Перси Джексон и Море чудовищ» (The Sea of Monsters, 2006).
• Во время съемок сцен на яхте и шлюпке Александра Даддарио обнаружила, что у нее есть склонность к морской болезни. Интересно то, что у ее персонажа в романе эта болезнь развивается на корабле «Месть королевы Анны».
• 20 июня — 22 июля съемки проходили в Новом Орлеане.
• Александра Даддарио перекрасила волосы на светлые для роли Аннабет Чейз.
• Планировалось, что фильм будет выпущен 15 марта 2013 года, но в мае 2012 года дата релиза была перенесена на 14 августа 2013 года.
• Ливэн Рамбин для своей роли Клариссы приходилось носить коричневый парик.
• Мистер Ди или Дионис (Стэнли Туччи) все же появился в этом фильме. В первом фильме ("Перси Джексон и похититель молний» (2010)) его персонаж был удален.
• Несмотря на то, что фильм был снят в формате «Супер 35», в финальных титрах указано «снято в Panavision».

Ошибки в фильме

• В сценах в Вашингтоне, Округ Колумбия, на фоне видны небоскребы. По закону, принятому в 1910 году, ограничена высота зданий, самое высокое — 64 метра.
• Когда Аннабет обнаруживает магические силы Золотого Руна на планшете, она затем подбегает к Гроверу, чтобы показать это, в этот момент можно заметить, что на его экране ничего нет.

MediaInfo

F:\Persi.Djekson.i.more.chudovish.2013.D.WEBDLRip.2100MB.avi
   General
      Complete name : F:\Persi.Djekson.i.more.chudovish.2013.D.WEBDLRip.2100MB.avi
      Format : AVI
      Format/Info : Audio Video Interleave
      File size : 2.05 GiB
      Duration : 1h 46mn
      Overall bit rate : 2 758 Kbps
      Movie name : Persi.Djekson.i.more.chudovish.2013.D.WEBDLRip.2100MB.INTERCINEMA
      Director : INTERCINEMA
      Genre : Fantasy/Adventure/Family
      Writing application : VirtualDubMod 1.5.10.2 (build 2540/release)
      Original source form/Name : Movie
      Copyright : http://intercinema.net/
   Video #0
      ID : 0
      Format : MPEG-4 Visual
      Codec ID : XVID
      Codec ID/Hint : XviD
      Duration : 1h 46mn
      Source duration : 1h 24mn
      Bit rate : 1976 kb/s
      Width : 720 pixels
      Height : 304 pixels
      Display aspect ratio : 2.35:1
      Frame rate : 23.976 fps
      Color space : YUV
      Chroma subsampling : 4:2:0
      Compression mode : Lossy
      Bits/(Pixel*Frame) : 2.732
      Stream size : 8.47 GiB
   Audio #1
      ID : 1
      Format : AC-3
      Format/Info : Audio Coding 3
      Codec ID : 2000
      Duration : 1h 46mn
      Source duration : 337h 32mn
      Bit rate mode : Constant
      Bit rate : 384 Kbps
      Channel(s) : 6 channels
      Sampling rate : 48.0 KHz
      Compression mode : Lossy
      Stream size : 54.3 GiB
      Alignment : Aligned on interleaves
      Interleave, duration : 42 ms (1.00 video frame)
   Audio #2
      ID : 2
      Format : AC-3
      Format/Info : Audio Coding 3
      Codec ID : 2000
      Duration : 1h 46mn
      Source duration : 369h 44mn
      Bit rate mode : Constant
      Bit rate : 384 Kbps
      Channel(s) : 2 channels
      Sampling rate : 48.0 KHz
      Compression mode : Lossy
      Stream size : 59.5 GiB
      Alignment : Aligned on interleaves
      Interleave, duration : 42 ms (1.00 video frame)
      Interleave, preload duration : 500 ms

Скриншоты

Создавать темы 11-Ноя-2013 06:11

[Профиль]  [ЛС] 

Jamba

Стаж: 4 года

Сообщений: 54

Симпатии: 4

Кинотеатральный да?

Создавать темы 11-Ноя-2013 20:37

[Профиль]  [ЛС] 

Suxrob89 ®

Стаж: 7 лет

Сообщений: 933

Симпатии: 564

Jamba,
Кинотеатральный да?
Да

Создавать темы 11-Ноя-2013 21:23

[Профиль]  [ЛС] 

tron

Стаж: 3 года 10 месяцев

Сообщений: 31

Симпатии: 4

Suxrob89, Когда будит английский дорожка

Создавать темы 11-Ноя-2013 23:12

[Профиль]  [ЛС] 

volume

Стаж: 6 лет 11 месяцев

Сообщений: 228

Симпатии: 11

По скринам думаю фильм очень хороший. СПС автору.

Создавать темы 12-Ноя-2013 07:58

[Профиль]  [ЛС] 

Fuzuliy

Стаж: 5 лет 5 месяцев

Сообщений: 202

Симпатии: 12

Вот девушка которая всегда с перси почему у неё огромные глаза?!!!!И надо убить сценаристов они издеваются над мифологией.Что с циклопами??!!!!!Что с Кроносом???И почему было так легко его одолеть вообще фильм 0/10

Создавать темы 12-Ноя-2013 23:58

[Профиль]  [ЛС] 

mihey_1999

Стаж: 4 года 2 месяца

Сообщений: 14

Симпатии: 5

Jamba,
Кинотеатральный да?
Да
это значит, что кто то снимал в кинотеатре на свою камеру?????????

Создавать темы 17-Ноя-2013 13:50

[Профиль]  [ЛС] 

pirat

Стаж: 5 лет 3 месяца

Сообщений: 216

Симпатии: 63

Спасибо автору.

По поводу фильма могу лишь сказать

Впечатлил лишь эффектами, но сочетание со всеми кораблями, планшетами...как то смешило картину.., возможно у всех свое мнение по поводу этого, чтож на вкус и цвет все фломастеры разные

Создавать темы 17-Ноя-2013 13:52

[Профиль]  [ЛС] 

Jnec

Стаж: 4 года 9 месяцев

Сообщений: 165

Спасибо большое!!!

Создавать темы 26-Ноя-2013 12:00

[Профиль]  [ЛС] 

СтАсИкОс

Стаж: 6 лет 7 месяцев

Сообщений: 314

Симпатии: 20

Перси Джексон и Море чудовищ / Percy Jackson: Sea of Monsters (Тор Фройденталь / Thor Freudenthal) [2013, США, фэнтези, приключения, семейный, HDRip][Лицензия]

Создавать темы 27-Ноя-2013 09:53

[Профиль]  [ЛС] 
Показать сообщения:    
Ответить на тему

Текущее время: 18-Авг 15:55

Часовой пояс: UTC + 5



Вы не можете начинать темы
Вы не можете отвечать на сообщения
Вы не можете редактировать свои сообщения
Вы не можете удалять свои сообщения
Вы не можете голосовать в опросах
Вы не можете прикреплять файлы к сообщениям
Вы не можете скачивать файлы