Война Богов: Бессмертные / Immortals (Тарсем Сингх) [2011 г., фэнтези, боевик, драма, BDRip]

Ответить на тему
 

Djoni111095 ®

Стаж: 4 года 10 месяцев

Сообщений: 57

Симпатии: 11

-Война Богов: Бессмертные / Immortals- --Год выпуска: 2011
Страна: США
Жанр: фэнтези, боевик, драма, ...
Продолжительность: 01:50:22
Перевод: Профессиональный (полное дублирование)--Режиссер: Тарсем Сингх--В ролях: Генри Кавилл,
Микки Рурк,
Фрида Пинто,
Люк Эванс,
Стивен Дорфф,
Изабель Лукас,
Келлан Латс,
Джон Хёрт,
Стивен МакХэтти,
Марк Марголис,-- Описание
Одержимый жаждой власти царь Гиперион хочет уничтожить род людской и низвергнуть богов.
С помощью Эпирского Лука, сделанного руками бога войны Ареса, он освобождает Титанов от тысячелетнего заточения
в горах Тартара. Боги бессильны противостоять безумному царю. Единственная надежда на спасение — герой Тесей, который вступает в неравную
войну с Титанами. Боги Олимпа во главе с самим Зевсом, пророчица Федра и хитрый раб Ставрос помогают герою в смертельной битве с демонами.
Тесей должен победить, или боги Олимпа будут низвержены, а Эллада обречена на погибель…-- --Качество: BDRip
Формат: MKV
Видео кодек: H.26x
Аудио кодек: AC3
Видео: 1280x688 2 452 Kbps 23.976 fps
Аудио: AC-3, 384 Kbps, 6 channels, 48.0 KHz--Трейлер

MI

General
Unique ID : 217603900656122796095567481682399086044 (0xA3B4FCA0D1C3D5D291D22F78F18C45DC)
Complete name : D:\Война Богов Бессмертные.mkv
Format : Matroska
Format version : Version 2
File size : 2.19 GiB
Duration : 1h 50mn
Overall bit rate : 2 837 Kbps
Movie name : Rip by Blo
Encoded date : UTC 2012-01-18 19:32:03
Writing application : mkvmerge v3.2.0 ('Beginnings') built on Feb 12 2010 16:46:17
Writing library : libebml v0.7.9 + libmatroska v0.8.1
Video
ID : 1
Format : AVC
Format/Info : Advanced Video Codec
Format profile : [email protected]
Format settings, CABAC : Yes
Format settings, ReFrames : 4 frames
Codec ID : V_MPEG4/ISO/AVC
Duration : 1h 50mn
Bit rate : 2 452 Kbps
Width : 1 280 pixels
Height : 688 pixels
Display aspect ratio : 1.860
Frame rate : 23.976 fps
Color space : YUV
Chroma subsampling : 4:2:0
Bit depth : 8 bits
Scan type : Progressive
Bits/(Pixel*Frame) : 0.116
Stream size : 1.85 GiB (84%)
Title : Война Богов: Бессмертные
Writing library : x264 core 116 r2074 2641b9e
Encoding settings : cabac=1 / ref=4 / deblock=1:0:0 / analyse=0x3:0x133 / me=hex / subme=7 / psy=1 / psy_rd=1.00:0.00 / mixed_ref=1 / me_range=16 / chroma_me=1 / trellis=1 / 8x8dct=1 / cqm=0 / deadzone=21,11 / fast_pskip=1 / chroma_qp_offset=-2 / threads=6 / sliced_threads=0 / nr=0 / decimate=1 / interlaced=0 / bluray_compat=0 / constrained_intra=0 / bframes=3 / b_pyramid=2 / b_adapt=2 / b_bias=0 / direct=1 / weightb=1 / open_gop=0 / weightp=2 / keyint=250 / keyint_min=23 / scenecut=40 / intra_refresh=0 / rc_lookahead=40 / rc=2pass / mbtree=1 / bitrate=2452 / ratetol=2.0 / qcomp=0.60 / qpmin=10 / qpmax=51 / qpstep=4 / cplxblur=20.0 / qblur=0.5 / ip_ratio=1.40 / aq=1:1.00
Language : English
Default : Yes
Forced : No
Audio
ID : 2
Format : AC-3
Format/Info : Audio Coding 3
Mode extension : CM (complete main)
Codec ID : A_AC3
Duration : 1h 50mn
Bit rate mode : Constant
Bit rate : 384 Kbps
Channel(s) : 6 channels
Channel positions : Front: L C R, Side: L R, LFE
Sampling rate : 48.0 KHz
Bit depth : 16 bits
Compression mode : Lossy
Stream size : 303 MiB (14%)
Title : Дублированный [лицензия]
Language : Russian
Default : Yes
Forced : No

Скриншоты





Последний раз редактировалось: Djoni111095 (2013-11-11 16:54), всего редактировалось 1 раз

Создавать темы 11-Ноя-2013 10:27

[Профиль]  [ЛС] 

Дмитриев

Стаж: 7 лет 3 месяца

Сообщений: 139

Симпатии: 12

Djoni111095 Спасибо то-что надо ay

Создавать темы 11-Ноя-2013 12:09

[Профиль]  [ЛС] 

Azazel

Стаж: 5 лет 8 месяцев

Сообщений: 62

Симпатии: 6

чёткий фильм а продолжение будет этого фильма ?

Создавать темы 11-Ноя-2013 12:46

[Профиль]  [ЛС] 

pashu_uz

Стаж: 4 года 4 месяца

Сообщений: 126

Симпатии: 25

эт не фэнтези а ужассс епть

_________________
Подпись отключена за нарушение правил форума

Создавать темы 11-Ноя-2013 16:51

[Профиль]  [ЛС] 

victor0778

Стаж: 6 лет 7 месяцев

Сообщений: 1670

Симпатии: 142

Djoni111095, в следующий раз постарайтесь названия фильма вставлять в оформление

Создавать темы 11-Ноя-2013 16:55

[Профиль]  [ЛС] 

Riko

Стаж: 7 лет 1 месяц

Сообщений: 8

Симпатии: 1

Почему у меня не качает?
под скажите пожалуйста

Создавать темы 20-Янв-2014 00:52

[Профиль]  [ЛС] 

Nyoppale

Стаж: 3 года 7 месяцев

Сообщений: 1

дайте скорость please

Создавать темы 16-Фев-2014 01:48

[Профиль]  [ЛС] 
Показать сообщения:    
Ответить на тему

Текущее время: 21-Сен 04:47

Часовой пояс: UTC + 5



Вы не можете начинать темы
Вы не можете отвечать на сообщения
Вы не можете редактировать свои сообщения
Вы не можете удалять свои сообщения
Вы не можете голосовать в опросах
Вы не можете прикреплять файлы к сообщениям
Вы не можете скачивать файлы