Росомаха: Бессмертный / The Wolverine (Джеймс Мэнголд / James Mangold) [2013, Фантастика, фэнтези, боевик, приключения, BDRip-AVC] [лицензия] + Original (Eng) + Sub (eng)

Ответить на тему
 

Suxrob89 ®

Стаж: 7 лет 2 месяца

Сообщений: 933

Симпатии: 564

- -Росомаха: Бессмертный / The Wolverine-«When he's most vulnerable, he's most dangerous»- Страна: Австралия, США / 20th Century Fox Film Corporation, Big Screen Productions, Donners' Company, Dune E
Жанр: Фантастика, фэнтези, боевик, приключения
Год выпуска: 2013
Продолжительность: 02:06:08-Перевод: Профессиональный (полное дублирование) [лицензия]
Cубтитры: английские (полные + форс.)
Оригинальная аудиодорожка: английский
Формат субтитров: softsub (SRT)-Режиссер: Джеймс Мэнголд / James Mangold-В ролях: Хью Джекман, Тао Окамото, Рила Фукусима, Светлана Ходченкова, Уилл Юн Ли, Харукико Яманоути, Хироюки Санада, Брайан Ти, Кен Ямамура, Фамке Янссен-Описание: Новая глава приключений Росомахи развернётся в Японии, где Логану предстоит выяснить, что острее — когти Росомахи или меч Серебряного Самурая.- -Качество: BDRip-AVC [The Wolverine 2013 1080p 2-IN-1 BluRay AVC DTS-HD MA 7.1-PublicHD]
Формат: MKV
Видео кодек: х.264
Аудио кодек: AC3
Видео: х.264, 1044x434 (2,40:1), 23,976 fps, 1712 Кbps, 0.158 bit/pixel
Аудио#1: 48 kHz, AC3 Dolby Digital, 6 ch, 384.00 kbps | ENG
Аудио#2: 48 kHz, AC3 Dolby Digital, 6 ch, 384.00 kbps | RUS

MediaInfo

H:\Rosomaha.Bessmertnyj.2013.BDRip.x264.mkv
   General
      Unique ID : 180469278510980229701185713115520052521 (0x87C51E66927394A283BA78FFBEA82D29)
      Complete name : H:\Rosomaha.Bessmertnyj.2013.BDRip.x264.mkv
      Format : Matroska
      Format version : Version 4 / Version 2
      File size : 2.18 GiB
      Duration : 2h 6mn
      Overall bit rate : 2 479 Kbps
      Movie name : HELLYWOOD - rip by potroks
      Encoded date : UTC 2013-11-19 02:14:40
      Writing application : mkvmerge v6.3.0 ('You can't stop me!') built on Jun 28 2013 20:09:41
      Writing library : libebml v1.3.0 + libmatroska v1.4.0
   Video #1
      ID : 1
      Format : AVC
      Format/Info : Advanced Video Codec
      Format profile : [email protected]
      Format settings, CABAC : Yes
      Format settings, ReFrames : 10 frames
      Codec ID : V_MPEG4/ISO/AVC
      Duration : 2h 6mn
      Bit rate : 1 712 Kbps
      Width : 1 044 pixels
      Height : 434 pixels
      Display aspect ratio : 2.40:1
      Frame rate mode : Constant
      Frame rate : 23.976 fps
      Color space : YUV
      Chroma subsampling : 4:2:0
      Bit depth : 8 bits
      Scan type : Progressive
      Bits/(Pixel*Frame) : 0.158
      Stream size : 1.46 GiB (67%)
      Title : The Wolverine
      Writing library : x264 core 130 r2273 b3065e6
      Encoding settings : cabac=1 / ref=10 / deblock=1:-3:-2 / analyse=0x3:0x133 / me=umh / subme=11 / psy=1 / psy_rd=1.04:0.00 / mixed_ref=1 / me_range=48 / chroma_me=1 / trellis=2 / 8x8dct=1 / cqm=0 / deadzone=21,11 / fast_pskip=0 / chroma_qp_offset=-2 / threads=9 / lookahead_threads=7 / sliced_threads=0 / nr=0 / decimate=0 / interlaced=0 / bluray_compat=0 / constrained_intra=0 / bframes=11 / b_pyramid=2 / b_adapt=2 / b_bias=0 / direct=3 / weightb=1 / open_gop=0 / weightp=2 / keyint=250 / keyint_min=23 / scenecut=40 / intra_refresh=0 / rc_lookahead=60 / rc=2pass / mbtree=0 / bitrate=1712 / ratetol=1.0 / qcomp=0.70 / qpmin=0 / qpmax=69 / qpstep=4 / cplxblur=20.0 / qblur=0.5 / vbv_maxrate=20000 / vbv_bufsize=20000 / nal_hrd=none / ip_ratio=1.35 / pb_ratio=1.25 / aq=1:0.80
      Language : English
      Default : Yes
      Forced : No
   Audio #2
      ID : 2
      Format : AC-3
      Format/Info : Audio Coding 3
      Mode extension : CM (complete main)
      Format settings, Endianness : Big
      Codec ID : A_AC3
      Duration : 2h 6mn
      Bit rate mode : Constant
      Bit rate : 384 Kbps
      Channel(s) : 6 channels
      Channel positions : Front: L C R, Side: L R, LFE
      Sampling rate : 48.0 KHz
      Bit depth : 16 bits
      Compression mode : Lossy
      Stream size : 346 MiB (15%)
      Title : Original | DD 5.1 @ 384 kbps
      Language : English
      Default : No
      Forced : No
   Audio #5
      ID : 5
      Format : AC-3
      Format/Info : Audio Coding 3
      Mode extension : CM (complete main)
      Format settings, Endianness : Big
      Codec ID : A_AC3
      Duration : 2h 6mn
      Bit rate mode : Constant
      Bit rate : 384 Kbps
      Channel(s) : 6 channels
      Channel positions : Front: L C R, Side: L R, LFE
      Sampling rate : 48.0 KHz
      Bit depth : 16 bits
      Compression mode : Lossy
      Stream size : 346 MiB (15%)
      Default : Yes
      Forced : No
   Text #3
      ID : 3
      Format : UTF-8
      Codec ID : S_TEXT/UTF8
      Codec ID/Info : UTF-8 Plain Text
      Title : Forced
      Language : English
      Default : No
      Forced : No
   Text #4
      ID : 4
      Format : UTF-8
      Codec ID : S_TEXT/UTF8
      Codec ID/Info : UTF-8 Plain Text
      Title : SDH
      Language : English
      Default : No
      Forced : No

Скриншоты



Последний раз редактировалось: Suxrob89 (2013-11-19 07:29), всего редактировалось 1 раз

Создавать темы 11-Ноя-2013 20:27

[Профиль]  [ЛС] 

Butcher9

Стаж: 4 года 7 месяцев

Сообщений: 38

Симпатии: 2

SUXROB лудше СТАЛИНГРАД залей буду при многом благодарен!!!!

Создавать темы 11-Ноя-2013 20:30

[Профиль]  [ЛС] 

Топик был перенесен из форума Фильмы за 2013 (новинки) в форум HD-AVC

mp1988

Создавать темы 11-Ноя-2013 20:51

 

Suxrob89 ®

Стаж: 7 лет 2 месяца

Сообщений: 933

Симпатии: 564

Butcher9, ну он ещё не в качестве

Создавать темы 11-Ноя-2013 21:23

[Профиль]  [ЛС] 

RichmanVIP

Стаж: 4 года 7 месяцев

Сообщений: 97

Симпатии: 4

Новый фильм чтоли залили??? С прежним хэш не совпадает... опять качать придется(

Создавать темы 19-Ноя-2013 08:57

[Профиль]  [ЛС] 

Дмитриев

Стаж: 7 лет 4 месяца

Сообщений: 139

Симпатии: 12

Suxrob89 Спасибо! Долго ждал в таком размере и качестве

Создавать темы 19-Ноя-2013 11:06

[Профиль]  [ЛС] 

Иннур

Стаж: 5 лет

Сообщений: 40

зачем надо было так делать? я уже почти скачал, а теперь обновил торрент и теперь закачка опять с нуля

Создавать темы 19-Ноя-2013 16:53

[Профиль]  [ЛС] 

Geroyn

Стаж: 5 лет 5 месяцев

Сообщений: 30

Симпатии: 1

скорости дайте

Создавать темы 07-Фев-2014 00:53

[Профиль]  [ЛС] 
Показать сообщения:    
Ответить на тему

Текущее время: 19-Окт 21:33

Часовой пояс: UTC + 5



Вы не можете начинать темы
Вы не можете отвечать на сообщения
Вы не можете редактировать свои сообщения
Вы не можете удалять свои сообщения
Вы не можете голосовать в опросах
Вы не можете прикреплять файлы к сообщениям
Вы не можете скачивать файлы