Работа!! (ТВ-1) / Working!! (Хирайкэ Ёсимаса) [TV] [13 из 13] [без хардсаба] [RUS(ext), JAP+SUB] [2010 г., комедия, повседневность, BDRip] [720p]

Ответить на тему
 

MeiDoCorpse ®

Стаж: 4 года 7 месяцев

Сообщений: 222

Симпатии: 14

Работа!!
Working!!
ワーキング!!
- Год выпуска: 2010
Страна: Япония
Жанр: комедия, повседневность
Продолжительность: ТВ | 13 эп. по 25 мин.-Режиссёр: Хирайкэ Ёсимаса
Автор оригинала: Такацу Карино
Студия: A-1 Pictures Inc.-Описание:
Небольшой семейный ресторанчик «Вагнария», что на острове Хоккайдо, самом севере Японии, процветает, персонала не хватает, а потому официантка Попура Танэсима получает задание найти нового работника. Беда в том, что 17-летняя Танэсима не вышла ростом и больше похожа на ученицу начальной школы, к которой мало кто прислушивается. Но ничего – ведь на свете есть любители всего «маленького и милого», к которым относится, к примеру, Сота Таканаси, принявший щедрое предложение. И теперь Сота, на год младше и вдвое выше новой знакомой, начинает нелегкую трудовую жизнь.
Нелегкая она потому, что в «Вагнарии» не только трудиться надо, но и сходиться с самыми различными людьми. Достаточно сказать, что одна из коллег Соты ходит на работу с фамильной катаной, а другая официантка всех незнакомых мужчин встречает исключительно хуком справа. На этом фоне апатичная управляющая, повара-сплетники и малышка Попура кажутся родными и близкими. Впрочем, Сота и сам оказался парень не промах и для моральной поддержки приобщил к походам в ресторан всех своих четырех сестер. Так и потекли трудовые будни свежеиспеченного работника японского общепита, у которого две заповеди: «Клиент всегда прав» и «Кушать хочется всегда»!
© Hollow, World Art-Информационные ссылки: AniDB || World Art || MAL-Качество: BDRip
Энкод: Yousei-raws
Контейнер: mkv
Тип видео: Без хардсаба
Наличие линковки: Нет
Видео: x264 (Hi10p), 1280x720, ~2500 Kbps, 23.976 fps
Аудио: Japanese, Vorbis, 48000Hz, ~256 Kbps, 2ch, в составе контейнера
Аудио: Russian, AAC, 48000Hz, ~256 Kbps, 2ch, внешними файлами | Eladiel
Субтитры: Russian, ASS, внешними файлами | Harusame Team-

Список эпизодов

01. Welcome to Wagnaria Takanashi Works
02. Inami, Androphobia. That`s Because I`m Scared...
03. Yachiyo, Kyouko, Satou... And the returning Otoo-san
04. Souma, a Fresh... Too Fresh, Youth
05. On a Certain Sick Day, It`s a Different Wagnaria
06. Souta`s Melancholy, The Women of the Takanashi Family
07. Long Time, No See, Otou, New Part Timer = Yamada(?!)
08. First Time, Inami? Going Out!
09. Enter Kotori-chan!!
10. The Suspicious Truth..., Nazuna Works
11. The Two of Them Back Then, Yachiyo and Satou. And, Welcome To The Takanashi Family
12. Why!? The Night Before the Decisive Battle. Taneshima`s Returned Favor
13. Final Battle: Namely the Date, How Things Turned Out for Takanashi and Inami...

Скриншоты

Подробные тех. данные

General
Unique ID : 183911074598313437794859799078759714468 (0x8A5BFC0C9ACE7A44B9FD7A3B67F64EA4)
Complete name : D:\Anime\Working!! TV-1 [BD] [720p]\[Yousei-raws] Working!! 01 [BDRip 1280x720 x264 Vorbis].mkv
Format : Matroska
Format version : Version 2
File size : 489 MiB
Duration : 24mn 36s
Overall bit rate mode : Variable
Overall bit rate : 2 782 Kbps
Encoded date : UTC 2011-10-10 05:12:36
Writing application : mkvmerge v2.9.7 ('Tenderness') built on Jul 1 2009 18:43:35
Writing library : libebml v0.7.7 + libmatroska v0.8.1
Video
ID : 1
Format : AVC
Format/Info : Advanced Video Codec
Format profile : High [email protected]
Format settings, CABAC : Yes
Format settings, ReFrames : 9 frames
Codec ID : V_MPEG4/ISO/AVC
Duration : 24mn 36s
Bit rate : 2 470 Kbps
Width : 1 280 pixels
Height : 720 pixels
Display aspect ratio : 16:9
Frame rate mode : Constant
Frame rate : 23.976 fps
Color space : YUV
Chroma subsampling : 4:2:0
Bit depth : 10 bits
Scan type : Progressive
Bits/(Pixel*Frame) : 0.112
Stream size : 435 MiB (89%)
Writing library : x264 core 118 r2085+614 d1cc25d
Encoding settings : cabac=1 / ref=9 / deblock=1:-2:-2 / analyse=0x3:0x133 / me=umh / subme=9 / psy=1 / fade_compensate=0.00 / psy_rd=0.90:0.00 / mixed_ref=1 / me_range=24 / chroma_me=1 / trellis=2 / 8x8dct=1 / cqm=0 / deadzone=21,11 / fast_pskip=1 / chroma_qp_offset=-2 / threads=6 / sliced_threads=0 / nr=0 / decimate=0 / interlaced=0 / bluray_compat=0 / constrained_intra=0 / fgo=0 / bframes=8 / b_pyramid=2 / b_adapt=2 / b_bias=0 / direct=1 / weightb=1 / open_gop=0 / weightp=2 / keyint=250 / keyint_min=23 / scenecut=40 / intra_refresh=0 / rc=crf / mbtree=0 / crf=15.5 / qcomp=0.70 / qpmin=9 / qpmax=38 / qpstep=4 / ip_ratio=1.40 / pb_ratio=1.30 / aq=1:0.90
Default : Yes
Forced : No
Audio
ID : 2
Format : Vorbis
Format settings, Floor : 1
Codec ID : A_VORBIS
Duration : 24mn 36s
Bit rate mode : Variable
Bit rate : 256 Kbps
Channel count : 2 channels
Sampling rate : 48.0 KHz
Compression mode : Lossy
Stream size : 45.0 MiB (9%)
Writing library : libVorbis (Schaufenugget) (20101101 (Schaufenugget))
Language : Japanese
Default : Yes
Forced : No

Создавать темы 12-Ноя-2013 21:46

[Профиль]  [ЛС] 
Показать сообщения:    
Ответить на тему

Текущее время: 11-Дек 14:14

Часовой пояс: UTC + 5



Вы не можете начинать темы
Вы не можете отвечать на сообщения
Вы не можете редактировать свои сообщения
Вы не можете удалять свои сообщения
Вы не можете голосовать в опросах
Вы не можете прикреплять файлы к сообщениям
Вы не можете скачивать файлы