Фантом / Phantom (Тодд Робинсон) [Триллер, 2013, BDRip-AVC]

Ответить на тему
 

Suxrob89 ®

Стаж: 7 лет 2 месяца

Сообщений: 933

Симпатии: 564

-Фантом / Phantom- Год выпуска: 2013
Производство: США / Trilogy Entertainment Group, Solar Filmworks LLC, RCR Media Group
Жанр: Триллер
Продолжительность: 01:38:22
Перевод: Любительский (многоголосый закадровый) Green Tea
Субтитры: Английские-Режиссер: Тодд Робинсон-В ролях: Эд Харрис Дэвид Духовны Уильям Фихтнер Лэнс Хенриксен Джонатон Шек Джейсон Бех Дагмара Доминчук Дерек Магияр Шон Патрик Флэнери Джейсон Грей-Стенфорд-О фильме: Капитан советской подводной лодки держит в своих руках судьбу всего мира. Вынужденному покинуть свою семью, ему приходится возглавить секретную миссию окутанную тайной…- -Качество: BDRip-AVC [Phantom.2013.1080p.BluRay.AVC.DTS-HD.MA.5.1-PublicHD]
Формат: MKV
Видео: H.264, 972x414 (2.35:1), 23,976 fps, 1675 Кbps, 0.174 bit/pixel
Аудио: 48 kHz, AC3 Dolby Digital, 3/2 (L,C,R,l,r) + LFE ch, 448.00 kbps

Media info

Общее
Уникальный идентификатор : 214410001768089243672816277851678863564 (0xA14DDD4154D7CEB1B161336E8CB670CC)
Полное имя : Fantom.2013.BDRip.x264.potroks..mkv
Формат : Matroska
Версия формата : Version 4 / Version 2
Размер файла : 1,46 Гбайт
Продолжительность : 1 ч. 38 м.
Общий поток : 2123 Кбит/сек
Название фильма : -=POTROKS=-
Дата кодирования : UTC 2013-06-27 17:28:39
Программа кодирования : mkvmerge v5.9.0 ('On The Loose') built on Dec 15 2012 16:39:58
Библиотека кодирования : libebml v1.3.0 + libmatroska v1.4.0
Видео
Идентификатор : 1
Формат : AVC
Формат/Информация : Advanced Video Codec
Профиль формата : [email protected]
Параметр CABAC формата : Да
Параметр ReFrames формата : 12 кадров
Идентификатор кодека : V_MPEG4/ISO/AVC
Продолжительность : 1 ч. 38 м.
Битрейт : 1675 Кбит/сек
Ширина : 972 пикселя
Высота : 414 пикселей
Соотношение сторон : 2,35:1
Режим частоты кадров : Постоянный
Частота кадров : 23,976 кадра/сек
Цветовое пространство : YUV
Субдискретизация насыщенности : 4:2:0
Битовая глубина : 8 бит
Тип развёртки : Прогрессивная
Бит/(Пиксели*Кадры) : 0.174
Размер потока : 1,12 Гбайт (77%)
Заголовок : Fantom
Библиотека кодирования : x264 core 125 r2208 d9d2288
Настройки программы : cabac=1 / ref=12 / deblock=1:-3:-2 / analyse=0x3:0x133 / me=umh / subme=11 / psy=1 / psy_rd=1.02:0.00 / mixed_ref=1 / me_range=48 / chroma_me=1 / trellis=2 / 8x8dct=1 / cqm=0 / deadzone=21,11 / fast_pskip=0 / chroma_qp_offset=-2 / threads=9 / lookahead_threads=1 / sliced_threads=0 / nr=0 / decimate=1 / interlaced=0 / bluray_compat=0 / constrained_intra=0 / bframes=13 / b_pyramid=2 / b_adapt=2 / b_bias=0 / direct=3 / weightb=1 / open_gop=0 / weightp=2 / keyint=240 / keyint_min=23 / scenecut=40 / intra_refresh=0 / rc_lookahead=100 / rc=2pass / mbtree=1 / bitrate=1675 / ratetol=1.0 / qcomp=0.70 / qpmin=0 / qpmax=69 / qpstep=4 / cplxblur=20.0 / qblur=0.5 / vbv_maxrate=20000 / vbv_bufsize=20000 / nal_hrd=none / ip_ratio=1.35 / aq=1:0.80
Язык : English
Default : Да
Forced : Нет
Аудио
Идентификатор : 2
Формат : AC-3
Формат/Информация : Audio Coding 3
Расширение режима : CM (complete main)
Параметр Endianness формата : Big
Идентификатор кодека : A_AC3
Продолжительность : 1 ч. 38 м.
Вид битрейта : Постоянный
Битрейт : 448 Кбит/сек
Каналы : 6 каналов
Расположение каналов : Front: L C R, Side: L R, LFE
Частота : 48,0 КГц
Битовая глубина : 16 бит
Метод сжатия : С потерями
Размер потока : 316 Мбайт (21%)
Заголовок : MVO | DD 5.1 @ 448 kbps - Green Tea
Язык : Russian
Default : Да
Forced : Да
Текст
Идентификатор : 3
Формат : UTF-8
Идентификатор кодека : S_TEXT/UTF8
Идентификатор кодека/Информация : UTF-8 Plain Text
Язык : English
Default : Нет
Forced : Нет

[email protected]

x264 [info]: frame I:1169 Avg QP:17.21 size: 45383
x264 [info]: frame P:27554 Avg QP:18.76 size: 17672
x264 [info]: frame B:112948 Avg QP:20.80 size: 6162
x264 [info]: consecutive B-frames: 1.6% 1.1% 3.5% 16.9% 18.7% 40.1% 7.6% 8.0% 1.1% 0.2% 0.2% 0.6% 0.1% 0.3%
x264 [info]: mb I I16..4: 11.4% 69.9% 18.8%
x264 [info]: mb P I16..4: 0.7% 4.8% 0.8% P16..4: 31.6% 39.3% 14.4% 2.2% 0.2% skip: 6.1%
x264 [info]: mb B I16..4: 0.0% 0.3% 0.1% B16..8: 39.2% 19.7% 3.4% direct: 4.3% skip:33.0% L0:43.8% L1:48.6% BI: 7.6%
x264 [info]: 8x8 transform intra:74.4% inter:61.1%
x264 [info]: direct mvs spatial:97.4% temporal:2.6%
x264 [info]: coded y,uvDC,uvAC intra: 83.7% 76.1% 55.7% inter: 24.1% 19.0% 4.0%
x264 [info]: i16 v,h,dc,p: 38% 17% 6% 40%
x264 [info]: i8 v,h,dc,ddl,ddr,vr,hd,vl,hu: 6% 5% 6% 12% 17% 15% 15% 12% 12%
x264 [info]: i4 v,h,dc,ddl,ddr,vr,hd,vl,hu: 7% 5% 7% 12% 17% 14% 14% 12% 13%
x264 [info]: i8c dc,h,v,p: 44% 22% 16% 17%
x264 [info]: Weighted P-Frames: Y:5.2% UV:1.8%
x264 [info]: ref P L0: 43.0% 8.2% 18.4% 7.5% 6.1% 4.4% 3.8% 2.0% 1.9% 1.6% 1.5% 1.4% 0.2% 0.0%
x264 [info]: ref B L0: 69.2% 12.9% 6.6% 3.2% 2.5% 1.9% 1.4% 0.8% 0.8% 0.5% 0.2%
x264 [info]: ref B L1: 91.1% 8.9%
x264 [info]: kb/s:1673.40
x264 [total]: encoded 141671 frames, 7.13 fps, 1673.40 kb/s
TIME
------------------------------
Общее время кодирования: 7 hour 50 min 17 sec
Файл получился на: 1179.73 mb

Скриншоты

Создавать темы 13-Ноя-2013 08:31

[Профиль]  [ЛС] 

Топик был перенесен из форума Фильмы за 2013 (новинки) в форум HD-AVC

Mixer City

Создавать темы 13-Ноя-2013 11:07

 

Mercuriy

Стаж: 5 лет 11 месяцев

Сообщений: 418

Симпатии: 100

Полнейший отстой, как только при первых минутах просмотра услышал треск в аудио не медля и моментально отправил его в топку(( Suxrob89, без обид.
P.S. Ждем далее что нибудь посерьезнее в стиле BDRip-AVC или 720P но лицензию и в сочетании с качественной картинкой...

Создавать темы 16-Ноя-2013 03:39

[Профиль]  [ЛС] 
Показать сообщения:    
Ответить на тему

Текущее время: 24-Окт 16:34

Часовой пояс: UTC + 5



Вы не можете начинать темы
Вы не можете отвечать на сообщения
Вы не можете редактировать свои сообщения
Вы не можете удалять свои сообщения
Вы не можете голосовать в опросах
Вы не можете прикреплять файлы к сообщениям
Вы не можете скачивать файлы