Юхан Фальк: Кодовое имя: Лиза / Johan Falk: Kodnamn: Lisa (Шарлотта Брандстром) [2012 г., боевик, триллер, криминал, HDRip]

Ответить на тему
 

Каротажник ®

Стаж: 3 года 11 месяцев

Сообщений: 195

Симпатии: 211

Юхан Фальк: Кодовое имя: Лиза / Johan Falk: Kodnamn: Lisa

Год выпуска: 2012
Страна: Швеция
Жанр: боевик, триллер, криминал
Продолжительность: 01:41:55
Перевод: Любительское двухголосное - DeadSno & den904
Режиссер: Шарлотта Брандстром
В ролях: Якоб Эклунд, Юэль Киннаман, Рут Вега Фернандез, Микаэл Торнвинг, Йенс Хультен, Сергей Меркусьев, Мелиз Карлге, Zeljko Santrac, Джессика Занден, Андре Сьоберг
Описание: Фальк работал осведомителем Франка Вагнера. И когда он тихо, мирно спал с женой и ребёнком к нему в квартиру ворвалось пятеро убийц, ему чудом удалось сбежать. Он попросил помощи у Вагнера и тот согласился скрыть его от бандитов. Но Фальк так же понял, что произошла утечка информации в полиции и теперь ему нельзя никому доверять, а бандиты устроили на него охоту...
Качество: HDRip
Формат: AVI
Видео кодек: XviD
Аудио кодек: AC3
Видео: 1718 kb/s, 688x384
Аудио: AC3, 192 kb/s (2 ch)

Media Info

General
Complete name : E:\Kino\russ\Johan.Falk.Organizatsija.Karayan.2012.L1.HDRip.avi
Format : AVI
Format/Info : Audio Video Interleave
File size : 1.46 GiB
Duration : 1h 41mn
Overall bit rate : 2 060 Kbps
Movie name : Johan Falk: Organizatsija Karayan (2012)
Genre : Action/Crime/Thriller
Writing application : VirtualDubMod 1.5.10.3 | www.virtualdub-fr.org || (build 2550/release)
Original source form/Name : Movie
Video #0
ID : 0
Format : MPEG-4 Visual
Format profile : Advanced [email protected]
Format settings, BVOP : 2
Format settings, QPel : No
Format settings, GMC : No warppoints
Format settings, Matrix : Custom
Muxing mode : Packed bitstream
Codec ID : XVID
Codec ID/Hint : XviD
Duration : 1h 41mn
Bit rate : 1 603 Kbps
Width : 688 pixels
Height : 384 pixels
Display aspect ratio : 16:9
Frame rate : 24.000 fps
Color space : YUV
Chroma subsampling : 4:2:0
Bit depth : 8 bits
Scan type : Progressive
Compression mode : Lossy
Bits/(Pixel*Frame) : 0.253
Stream size : 1.13 GiB (78%)
Writing library : XviD 65
Audio #1
ID : 1
Format : AC-3
Format/Info : Audio Coding 3
Mode extension : CM (complete main)
Format settings, Endianness : Big
Codec ID : 2000
Duration : 1h 41mn
Bit rate mode : Constant
Bit rate : 448 Kbps
Channel(s) : 6 channels
Channel positions : Front: L C R, Side: L R, LFE
Sampling rate : 48.0 KHz
Bit depth : 16 bits
Compression mode : Lossy
Stream size : 324 MiB (22%)
Alignment : Split accross interleaves
Interleave, duration : 42 ms (1.00 video frame)
Interleave, preload duration : 500 ms

Скриншоты





Последний раз редактировалось: Каротажник (2013-11-14 11:02), всего редактировалось 2 раз(а)

Создавать темы 14-Ноя-2013 09:15

[Профиль]  [ЛС] 

hamidillo81

Стаж: 6 лет 5 месяцев

Сообщений: 2

2-3-скрины одинаковое

Создавать темы 14-Ноя-2013 19:33

[Профиль]  [ЛС] 

Xuri007

Стаж: 5 лет 3 месяца

Сообщений: 106

как фильм отпишитесь

Создавать темы 15-Ноя-2013 19:52

[Профиль]  [ЛС] 
Показать сообщения:    
Ответить на тему

Текущее время: 26-Сен 05:05

Часовой пояс: UTC + 5



Вы не можете начинать темы
Вы не можете отвечать на сообщения
Вы не можете редактировать свои сообщения
Вы не можете удалять свои сообщения
Вы не можете голосовать в опросах
Вы не можете прикреплять файлы к сообщениям
Вы не можете скачивать файлы