РЭД 2 / Red 2 (Дин Паризо) [2013 г., Боевик, Комедия, Web-DL, Full HD (1080p)]

Ответить на тему
 

vea62 ®

Стаж: 4 года 11 месяцев

Сообщений: 31

Симпатии: 3

РЭД 2 / Red 2
Год выпуска: 2013
Страна: Канада, США, Франция, Великобритания, Россия
Жанр: Боевик, Комедия
Продолжительность: 01:55:49
Перевод: Профессиональный (полное дублирование)
Режиссер: Дин Паризо
В ролях: Брайан Кокс, Брюс Уиллис, Джон Малкович, Дэвид Тьюлис, Кэтрин Зета-Джонс, Ли Бён Хон, Мэри-Луиз Паркер, Хелен Миррен, Энтони Хопкинс, Чжон Кон Ли
Описание: Вышедший на пенсию тайный агент ЦРУ Фрэнк Мозес объединяется с командой старых друзей, элитных оперативников, с целью найти пропавшее оружие массового уничтожения. Чтобы его заполучить, придётся прорываться сквозь армии безжалостных наёмников, террористов и всегда жаждущих власти политиков. Миссия приводит Фрэнка и его разношёрстную команду вышедших на пенсию убийц в Париж, Лондон и Москву. В их арсенале есть только хитрость, старая сноровка и помощь друг друга, чтобы спасти мир и при этом самим остаться в живых.
Доп. информация: Рейтинг КиноПоиск.Ru: 7.221 (11296)
Рейтинг IMDb: 6.9 (25734)
Качество: WEB-DL (1080p)
Формат: MKV
Видео кодек: AVC
Аудио кодек: AC3
Видео: MPEG-4 AVC, 3656 Кбит/с, 1912x792
Аудио1: Русский (AC3, 6 ch, 384 Кбит/с)
Аудио2 английский (AC3, 2 ch, 160 Кбит/с)
Размер: 4.47 ГБ

Скриншоты




MediaInfo

Общее
Уникальный идентификатор : 227958717382784572775723867143094231141 (0xAB7F40825C9642B7938717A285F16065)
Полное имя : C:\Downloads\Видео\Red.2.2013.D.1080p.WEB-DL.mkv
Формат : Matroska
Версия формата : Version 4 / Version 2
Размер файла : 4,47 Гбайт
Продолжительность : 1 ч. 55 м.
Общий поток : 5526 Кбит/сек
Дата кодирования : UTC 2013-11-12 17:54:05
Программа кодирования : mkvmerge v6.5.0 ('Isn't she lovely') built on Oct 20 2013 12:50:05
Библиотека кодирования : libebml v1.3.0 + libmatroska v1.4.1
Видео
Идентификатор : 1
Формат : AVC
Формат/Информация : Advanced Video Codec
Профиль формата : [email protected]
Параметр CABAC формата : Да
Параметр ReFrames формата : 5 кадров
Идентификатор кодека : V_MPEG4/ISO/AVC
Продолжительность : 1 ч. 55 м.
Битрейт : 4648 Кбит/сек
Ширина : 1912 пикселей
Высота : 792 пикселя
Соотношение сторон : 2,40:1
Режим частоты кадров : Постоянный
Частота кадров : 23,976 кадра/сек
Цветовое пространство : YUV
Субдискретизация насыщенности : 4:2:0
Битовая глубина : 8 бит
Тип развёртки : Прогрессивная
Бит/(Пиксели*Кадры) : 0.128
Размер потока : 3,76 Гбайт (84%)
Язык : English
Default : Да
Forced : Нет
Основные цвета : BT.709
Характеристики трансфера : BT.709
Коэффициенты матрицы : BT.709
Аудио #1
Идентификатор : 2
Формат : AC-3
Формат/Информация : Audio Coding 3
Расширение режима : CM (complete main)
Параметр Endianness формата : Big
Идентификатор кодека : A_AC3
Продолжительность : 1 ч. 55 м.
Вид битрейта : Постоянный
Битрейт : 384 Кбит/сек
Каналы : 6 каналов
Расположение каналов : Front: L C R, Side: L R, LFE
Частота : 48,0 КГц
Битовая глубина : 16 бит
Метод сжатия : С потерями
Размер потока : 318 Мбайт (7%)
Заголовок : INTERCINEMA
Язык : Russian
Default : Да
Forced : Нет
Аудио #2
Идентификатор : 3
Формат : AC-3
Формат/Информация : Audio Coding 3
Расширение режима : CM (complete main)
Параметр Endianness формата : Big
Идентификатор кодека : A_AC3
Продолжительность : 1 ч. 55 м.
Вид битрейта : Постоянный
Битрейт : 384 Кбит/сек
Каналы : 6 каналов
Расположение каналов : Front: L C R, Side: L R, LFE
Частота : 48,0 КГц
Битовая глубина : 16 бит
Метод сжатия : С потерями
Размер потока : 318 Мбайт (7%)
Язык : English
Default : Нет
Forced : Нет
Текст
Идентификатор : 4
Формат : UTF-8
Идентификатор кодека : S_TEXT/UTF8
Идентификатор кодека/Информация : UTF-8 Plain Text
Язык : English
Default : Нет
Forced : Нет
Меню
00:00:00.000 : en:Chapter 1
00:08:16.000 : en:Chapter 2
00:14:48.000 : en:Chapter 3
00:21:16.000 : en:Chapter 4
00:28:18.000 : en:Chapter 5
00:39:38.000 : en:Chapter 6
00:47:09.000 : en:Chapter 7
00:54:18.000 : en:Chapter 8
01:00:06.000 : en:Chapter 9
01:07:32.000 : en:Chapter 10
01:11:34.000 : en:Chapter 11
01:18:38.000 : en:Chapter 12
01:23:01.000 : en:Chapter 13
01:27:46.000 : en:Chapter 14
01:35:38.000 : en:Chapter 15
01:41:29.000 : en:Chapter 16
01:45:05.000 : en:Chapter 17
01:46:45.000 : en:Chapter 18


Последний раз редактировалось: vea62 (2013-11-15 00:16), всего редактировалось 2 раз(а)

Создавать темы 14-Ноя-2013 23:03

[Профиль]  [ЛС] 
Показать сообщения:    
Ответить на тему

Текущее время: 22-Сен 05:53

Часовой пояс: UTC + 5



Вы не можете начинать темы
Вы не можете отвечать на сообщения
Вы не можете редактировать свои сообщения
Вы не можете удалять свои сообщения
Вы не можете голосовать в опросах
Вы не можете прикреплять файлы к сообщениям
Вы не можете скачивать файлы