Только Бог простит / Only God Forgives (Николас Виндинг Рефн) [2013 г., триллер, драма, криминал, BDRip-AVC]

Ответить на тему
 

Inobat ®

Стаж: 6 лет 9 месяцев

Сообщений: 23

Симпатии: 10

Только Бог простит / Only God Forgives
Год выпуска: 2013
Страна: Франция, Таиланд, США, Швеция
Жанр: триллер, драма, криминал
Продолжительность: 01:30:30
Перевод: Любительский (двухголосый)

Режиссер: Николас Виндинг Рефн
В ролях: Райан Гослинг, Кристин Скотт Томас, Витайя Пансрингарм, Гордон Браун, Ейяинг Рхатха Пхонгам, Том Берк, Сахаджак Бунтанакит, Питчават Петчаяхон, Чарли Рюдпоканон, Байрон Гибсон
Описание: Американский экспат в Бангкоке (Райан Гослинг) — владелец боксерского клуба и по совместительству торговец наркотиками — впутывается в войну между полицией и собственной семьей, когда его брат убивает малолетнюю проститутку. В центре драмы также оказываются циничная мама главного героя (Кристин Скотт Томас) и местный полицейский, считающий себя ангелом мщения. Визуально «Только Бог простит» получился прямым продолжением «Драйва», только еще более вульгарным (как вариант — красочным) и кислотным: большую часть времени Рефн концентрируется на перетекающих друг в друга неоновых пятнах и их отблесках на многозначительных лицах героев. Содержательно же Рефн окончательно попрощался с реализмом и снял странную притчу про семью и преступление и наказание.
Качество: BDRip-AVC
Формат: MKV
Видео кодек: H264
Аудио кодек: AC3
Видео: MPEG4 Video (H264) 1024x552 23.976fps 1 985 Kbps
Аудио: Dolby AC3 48000Hz 6ch 448 Kbps
Subtitle: UTF-8 [Russian]
Subtitle: UTF-8 [English ]

Скриншоты



MI

Format                         : Matroska
Format version                 : Version 2
File size                      : 1.55 GiB
Duration                       : 1h 29mn
Overall bit rate               : 2 482 Kbps
Movie name                     : -=LEONARDO=-
Encoded date                   : UTC 2013-10-05 19:33:42
Writing application            : mkvmerge v5.0.1 ('Es ist Sommer') built on Oct 23 2011 00:46:40
Writing library                : libebml v1.2.2 + libmatroska v1.3.0
Video
ID                             : 1
Format                         : AVC
Format/Info                    : Advanced Video Codec
Format profile                 : High@L4.1
Format settings, CABAC         : Yes
Format settings, ReFrames      : 12 frames
Codec ID                       : V_MPEG4/ISO/AVC
Duration                       : 1h 29mn
Bit rate                       : 1 985 Kbps
Width                          : 1 024 pixels
Height                         : 552 pixels
Display aspect ratio           : 1.85:1
Frame rate mode                : Constant
Frame rate                     : 23.976 fps
Color space                    : YUV
Chroma subsampling             : 4:2:0
Bit depth                      : 8 bits
Scan type                      : Progressive
Bits/(Pixel*Frame)             : 0.146
Stream size                    : 1.24 GiB (80%)
Writing library                : x264 core 125 r2208 d9d2288
Encoding settings              : cabac=1 / ref=12 / deblock=1:-3:-3 / analyse=0x3:0x133 / me=umh / subme=11 / psy=1 / psy_rd=1.00:0.20 / mixed_ref=1 / me_range=32 / chroma_me=1 / trellis=2 / 8x8dct=1 / cqm=0 / deadzone=21,11 / fast_pskip=0 / chroma_qp_offset=-3 / threads=3 / lookahead_threads=1 / sliced_threads=0 / nr=0 / decimate=1 / interlaced=0 / bluray_compat=0 / constrained_intra=0 / bframes=7 / b_pyramid=2 / b_adapt=2 / b_bias=0 / direct=1 / weightb=1 / open_gop=0 / weightp=2 / keyint=250 / keyint_min=23 / scenecut=40 / intra_refresh=0 / rc=crf / mbtree=0 / crf=19.0 / qcomp=0.60 / qpmin=0 / qpmax=69 / qpstep=4 / ip_ratio=1.30 / pb_ratio=1.15 / aq=2:1.00
Language                       : English
Default                        : Yes
Forced                         : No
Audio
ID                             : 2
Format                         : AC-3
Format/Info                    : Audio Coding 3
Mode extension                 : CM (complete main)
Format settings, Endianness    : Big
Codec ID                       : A_AC3
Duration                       : 1h 29mn
Bit rate mode                  : Constant
Bit rate                       : 448 Kbps
Channel(s)                     : 6 channels
Channel positions              : Front: L C R, Side: L R, LFE
Sampling rate                  : 48.0 KHz
Bit depth                      : 16 bits
Compression mode               : Lossy
Stream size                    : 287 MiB (18%)
Title                          : Russian
Language                       : Russian
Default                        : Yes
Forced                         : Yes
Text #1
ID                             : 3
Format                         : UTF-8
Codec ID                       : S_TEXT/UTF8
Codec ID/Info                  : UTF-8 Plain Text
Language                       : Russian
Default                        : No
Forced                         : No
Text #2
ID                             : 4
Format                         : UTF-8
Codec ID                       : S_TEXT/UTF8
Codec ID/Info                  : UTF-8 Plain Text
Language                       : English
Default                        : No
Forced                         : No
Menu
00:00:00.000                   : en:00:00:00.000
00:06:43.320                   : en:00:06:43.320
00:17:57.285                   : en:00:17:57.285
00:23:58.312                   : en:00:23:58.312
00:29:55.585                   : en:00:29:55.585
00:37:12.814                   : en:00:37:12.814
00:46:54.353                   : en:00:46:54.353
00:54:06.994                   : en:00:54:06.994
01:01:20.260                   : en:01:01:20.260
01:08:08.710                   : en:01:08:08.710
01:15:42.872                   : en:01:15:42.872
01:26:46.159                   : en:01:26:46.159


Последний раз редактировалось: Inobat (2013-11-15 11:28), всего редактировалось 1 раз

Создавать темы 15-Ноя-2013 06:37

[Профиль]  [ЛС] 

player546

Стаж: 4 года 2 месяца

Сообщений: 97

Симпатии: 12

А где англ. дорожка? Не ожидал от тебя.. :)

Создавать темы 15-Ноя-2013 08:30

[Профиль]  [ЛС] 

shurikq

Стаж: 5 лет 1 месяц

Сообщений: 114

Симпатии: 1

воу спасибо огромное очень ждал !!! респект автору )!!!

Создавать темы 15-Ноя-2013 09:07

[Профиль]  [ЛС] 

Топик был перенесен из форума Фильмы за 2013 (новинки) в форум HD-AVC

Grock

Создавать темы 15-Ноя-2013 11:28

 

shurikq

Стаж: 5 лет 1 месяц

Сообщений: 114

Симпатии: 1

блин ващще не идёт !!! скорость дайте

Создавать темы 17-Ноя-2013 11:53

[Профиль]  [ЛС] 
Показать сообщения:    
Ответить на тему

Текущее время: 21-Окт 04:31

Часовой пояс: UTC + 5



Вы не можете начинать темы
Вы не можете отвечать на сообщения
Вы не можете редактировать свои сообщения
Вы не можете удалять свои сообщения
Вы не можете голосовать в опросах
Вы не можете прикреплять файлы к сообщениям
Вы не можете скачивать файлы