Настоящие индийские парни / Desi Boyz (Рохит Дхаван) [2011 г., драма, комедия, DVDRip]

Ответить на тему
 

master_mig ®

Стаж: 5 лет 10 месяцев

Сообщений: 7

Настоящие индийские парни / Desi Boyz
Год выпуска: 2011
Страна: Индия
Жанр: драма, комедия
Продолжительность: 02:01:49
Перевод:многоголосый, закадровый (Simon и Christina)
Режиссер: Рохит Дхаван
В ролях: Акшай Кумар, Джон Абрахам, Дипика Падукон, Читрангада Сингх, Бруна Абдалах, Шехар Басси,
Питер Браун, Памела Бетси Купер, Санджай Датт, Джеймс Фицджералд.
Описание: 2009 год. Финансовый кризис шокирует весь мир. Однако Ник Матур и Джерри Патель пока не чувствуют ничего плохого в своём фешенебельном Лондоне.
В то время как везунчик Ник счастлив со своей прекрасной невестой Радхикой, успешно проводит банковские операции на работе и зарабатывает очередной бонус, Джерри настолько уже привык потуже затягивать свой поясок и жить за счёт своего лучшего приятеля Ника, что финансовый кризис никак не выводит его из колеи. Однако жизнь преподносит обоим друзьям по сюрпризу, которые буквально выдёргивают ковёр из-под их ног. Улыбка исчезает с лица Ника и Джерри, когда компания Ника решает сократить персонал и бесцеремонно увольняет его. Джерри, в свою очередь, получает информацию о том, что его племянник Вир, чьим официальным опекуном он является, будет помещён в детский дом, до тех пор пока Джерри не найдёт постоянную работу.
бюджет:£2 000 000
сборы в США $1 078 826

Доп. информация

Video
ID : 0
Format : MPEG-4 Visual
Format profile : Advanced [email protected]
Format settings, BVOP : 2
Format settings, QPel : No
Format settings, GMC : No warppoints
Format settings, Matrix : Default (MPEG)
Codec ID : DX50
Codec ID/Hint : DivX 5
Duration : 2h 1mn
Bit rate : 1 251 Kbps
Width : 720 pixels
Height : 304 pixels
Display aspect ratio : 2.35:1
Frame rate : 23.976 fps
Color space : YUV
Chroma subsampling : 4:2:0
Bit depth : 8 bits
Scan type : Progressive
Compression mode : Lossy
Bits/(Pixel*Frame) : 0.238
Stream size : 1.06 GiB (73%)
Writing library : XviD 1.2.1 (UTC 2008-12-04)
Audio
ID : 1
Format : AC-3
Format/Info : Audio Coding 3
Mode extension : CM (complete main)
Codec ID : 2000
Duration : 2h 1mn
Bit rate mode : Constant
Bit rate : 448 Kbps
Channel(s) : 6 channels
Channel positions : Front: L C R, Side: L R, LFE
Sampling rate : 48.0 KHz
Bit depth : 16 bits
Compression mode : Lossy
Stream size : 390 MiB (26%)
Alignment : Split accross interleaves
Interleave, duration : 42 ms (1.00 video frame)
Interleave, preload duration : 500 ms
Качество: DVDRip
Формат: AVI
Видео кодек: Другой MPEG4
Аудио кодек: AC3
Видео: 720 x 304, 1251 Kbps
Аудио: 448 Kbps, 6 channels

Скриншоты







Последний раз редактировалось: master_mig (2013-11-15 20:21), всего редактировалось 3 раз(а)

Создавать темы 15-Ноя-2013 13:40

[Профиль]  [ЛС] 

victor0778

Стаж: 6 лет 9 месяцев

Сообщений: 1670

Симпатии: 142

master_mig,
Перевод: Профессиональный (многоголосый, закадровый)
Перевод: Любительский (Simon и Christina)

Создавать темы 15-Ноя-2013 20:00

[Профиль]  [ЛС] 

master_mig ®

Стаж: 5 лет 10 месяцев

Сообщений: 7

гатов

Создавать темы 15-Ноя-2013 20:22

[Профиль]  [ЛС] 

victor0778

Стаж: 6 лет 9 месяцев

Сообщений: 1670

Симпатии: 142

master_mig, встаньте на раздачу иначе ваш релиз отправится в архив

Создавать темы 15-Ноя-2013 20:48

[Профиль]  [ЛС] 

master_mig ®

Стаж: 5 лет 10 месяцев

Сообщений: 7

ladno

Создавать темы 15-Ноя-2013 20:53

[Профиль]  [ЛС] 

misha

Стаж: 7 лет 10 месяцев

Сообщений: 32

Дайте докачать, пожалуйста. Осталось всего 1.5% докачать.

Создавать темы 06-Фев-2014 20:22

[Профиль]  [ЛС] 
Показать сообщения:    
Ответить на тему

Текущее время: 25-Ноя 07:08

Часовой пояс: UTC + 5



Вы не можете начинать темы
Вы не можете отвечать на сообщения
Вы не можете редактировать свои сообщения
Вы не можете удалять свои сообщения
Вы не можете голосовать в опросах
Вы не можете прикреплять файлы к сообщениям
Вы не можете скачивать файлы