Страсти Дон Жуана / Don Jon (Джозеф Гордон-Левитт) [2013 г., комедия, мелодрама, DVDRip] [Лицензия]

Страницы :  1, 2, 3  След.

Ответить на тему
 

victor0778 ®

Стаж: 6 лет 9 месяцев

Сообщений: 1670

Симпатии: 142

Страсти Дон Жуана / Don Jon-«В этой жизни меня заботит всего несколько вещей: мое тело, мой дом, моя тачка, мои друзья, мои телки и… порнуха»- -
Год выпуска: 2013
Страна: США
Жанр: комедия, мелодрама
Продолжительность: 01:26:07
Перевод: Профессиональный (дублированный)[лицензия]-Режиссер: Джозеф Гордон-Левитт-В ролях: Джозеф Гордон-Левитт, Скарлетт Йоханссон, Джулианна Мур, Тони Данца, Гленн Хедли, Бри Ларсон, Роб Браун, Джереми Люк, Пол Бен-Виктор, Италиа Риччи-Описание: Комичная история современного ловеласа, который из каждого любовного приключения вынужден спасаться бегством. Он еще не знает, что недалек тот час, когда ему все-таки придется остепениться…-Качество: DVDRip
Формат: AVI
Видео кодек: XviD
Аудио кодек: AC3
Видео: 1880 kb/s, 720x304
Аудио: AC3, 384 kb/s (6 ch)-  

МедиаИнфо

General
Complete name                            : G:\Strasti.Don.Juana.2013.D.DVDRip.1400MB..avi
Format                                   : AVI
Format/Info                              : Audio Video Interleave
File size                                : 1.37 GiB
Duration                                 : 1h 26mn
Overall bit rate                         : 2 275 Kbps
Movie name                               : Strasti.Don.Juana.2013.D.DVDRip.1400MB.INTERCINEMA
Director                                 : INTERCINEMA
Genre                                    : Comedy/Romance
Writing application                      : VirtualDubMod 1.5.10.3 | www.virtualdub-fr.org || (build 2550/release)
Original source form/Name                : Movie
Copyright                                : http://intercinema.net
Video
ID                                       : 0
Format                                   : MPEG-4 Visual
Format profile                           : Advanced [email protected]
Format settings, BVOP                    : 1
Format settings, QPel                    : No
Format settings, GMC                     : No warppoints
Format settings, Matrix                  : Default (MPEG)
Codec ID                                 : XVID
Codec ID/Hint                            : XviD
Duration                                 : 1h 26mn
Bit rate                                 : 1 881 Kbps
Width                                    : 720 pixels
Height                                   : 304 pixels
Display aspect ratio                     : 2.35:1
Frame rate                               : 25.000 fps
Color space                              : YUV
Chroma subsampling                       : 4:2:0
Bit depth                                : 8 bits
Scan type                                : Progressive
Compression mode                         : Lossy
Bits/(Pixel*Frame)                       : 0.344
Stream size                              : 1.13 GiB (83%)
Writing library                          : XviD 1.2.1 (UTC 2008-12-04)
Audio
ID                                       : 1
Format                                   : AC-3
Format/Info                              : Audio Coding 3
Mode extension                           : CM (complete main)
Format settings, Endianness              : Big
Codec ID                                 : 2000
Duration                                 : 1h 26mn
Bit rate mode                            : Constant
Bit rate                                 : 384 Kbps
Channel(s)                               : 6 channels
Channel positions                        : Front: L C R, Side: L R, LFE
Sampling rate                            : 48.0 KHz
Bit depth                                : 16 bits
Compression mode                         : Lossy
Stream size                              : 237 MiB (17%)
Alignment                                : Split accross interleaves
Interleave, duration                     : 40 ms (1.00 video frame)
Interleave, preload duration             : 500 ms

Скриншоты



Последний раз редактировалось: victor0778 (2013-12-16 01:11), всего редактировалось 2 раз(а)

Создавать темы 16-Ноя-2013 00:28

[Профиль]  [ЛС] 

hamit

Стаж: 6 лет 7 месяцев

Сообщений: 202

Симпатии: 17

молодца

Создавать темы 16-Ноя-2013 01:00

[Профиль]  [ЛС] 

Imperiya

Стаж: 6 лет 7 месяцев

Сообщений: 275

Симпатии: 4

вот трейлер http://mover.uz/watch/ddokqOfj/

Создавать темы 16-Ноя-2013 09:51

[Профиль]  [ЛС] 

jetdevil2001

Стаж: 4 года 5 месяцев

Сообщений: 8

режиссёр со смачной фамилией Гордон-Леви вас научит ...)))
Вы антисемит?

Создавать темы 16-Ноя-2013 10:33

[Профиль]  [ЛС] 

Феникс

Стаж: 5 лет 1 месяц

Сообщений: 14

режиссёр со смачной фамилией Гордон-Леви вас научит ...)))
Ничего смачного не вижу, ну если вы его не пробывали, или не щупали только)

Создавать темы 16-Ноя-2013 16:25

[Профиль]  [ЛС] 

NeymaR

Стаж: 4 года

Сообщений: 68

Симпатии: 16

прикольный фильм)) спасибо))

Создавать темы 16-Ноя-2013 16:37

[Профиль]  [ЛС] 

victor0778 ®

Стаж: 6 лет 9 месяцев

Сообщений: 1670

Симпатии: 142

с детьми лучше не смотреть mx

Создавать темы 16-Ноя-2013 16:39

[Профиль]  [ЛС] 

zaksan

Стаж: 4 года 6 месяцев

Сообщений: 3

режиссёр со смачной фамилией Гордон-Леви вас научит ...)))
Вы антисемит?
А поцчиму вы так спrашиваете?

Создавать темы 17-Ноя-2013 23:50

[Профиль]  [ЛС] 

mariolover

Стаж: 5 лет 7 месяцев

Сообщений: 16

Симпатии: 1

Слово Порно упоминается в фильме так часто)) - много порно сцен и тд - это для тех кто собирается смотреть в кругу семьи в ожидании что это фильм про соблазнение в стиле Метод Хитча)

Создавать темы 18-Ноя-2013 03:17

[Профиль]  [ЛС] 

AeRoNHanD

Стаж: 5 лет 1 месяц

Сообщений: 198

Симпатии: 3

На последнем скриншоте как актера звать подскажите если не трудно??

Создавать темы 19-Ноя-2013 12:25

[Профиль]  [ЛС] 

victor0778 ®

Стаж: 6 лет 9 месяцев

Сообщений: 1670

Симпатии: 142

На последнем скриншоте как актера звать подскажите если не трудно??
Роб Браун (Rob Brown)

Создавать темы 19-Ноя-2013 13:57

[Профиль]  [ЛС] 

gaffar

Стаж: 4 года 10 месяцев

Сообщений: 42

Симпатии: 1

Супер прикольный фильм! спс

Создавать темы 19-Ноя-2013 14:08

[Профиль]  [ЛС] 

AeRoNHanD

Стаж: 5 лет 1 месяц

Сообщений: 198

Симпатии: 3

На последнем скриншоте как актера звать подскажите если не трудно??
Роб Браун (Rob Brown)
Спасибо он вроде Тренер Картер в фильме снимался))))

Создавать темы 19-Ноя-2013 17:13

[Профиль]  [ЛС] 

donik5700

Стаж: 4 года 9 месяцев

Сообщений: 18

а английский язык присутствует?

Создавать темы 19-Ноя-2013 19:51

[Профиль]  [ЛС] 

FRON

Стаж: 5 лет 1 месяц

Сообщений: 46

фильм норм. не зря качал

Создавать темы 20-Ноя-2013 21:46

[Профиль]  [ЛС] 
Показать сообщения:    
Ответить на тему

Текущее время: 19-Ноя 16:59

Часовой пояс: UTC + 5



Вы не можете начинать темы
Вы не можете отвечать на сообщения
Вы не можете редактировать свои сообщения
Вы не можете удалять свои сообщения
Вы не можете голосовать в опросах
Вы не можете прикреплять файлы к сообщениям
Вы не можете скачивать файлы