Мачете убивает / Machete Kills (Роберт Родригес / Robert Rodriguez) [2013, США, Россия, боевик, комедия, HDTVRip] Dub (Line)

Ответить на тему
 

Suxrob89 ®

Стаж: 7 лет 3 месяца

Сообщений: 933

Симпатии: 564

- - Страна: США, Россия
Жанр: боевик, комедия
Год выпуска: 2013
Продолжительность: 01:43:03-Перевод: Профессиональный (дублированный) [Чистый звук]
Cубтитры: нет
Оригинальная аудиодорожка: нет-Режиссер: Роберт Родригес / Robert Rodriguez-В ролях: Дэнни Трехо, Мишель Родригес, Эмбер Хёрд, Демиан Бишир, Мэл Гибсон, София Вергара, Чарли Шин, Леди Гага, Алекса Вега, Антонио Бандерас-Описание: Правительство США вербует Мачете для миссии, которую не под силу выполнить простому смертному. Мачете прорывается в Мексику, чтобы схватить безумного лидера карательного отряда и эксцентричного миллиардера, торгующего оружием, который, в свою очередь, лелеет мечту начать войну планетарного масштаба и запустить смертельно опасное оружие в космос. И только Мачете может предотвратить этот глобальный хаос.- -Качество видео: HDTVRip [Рип с HDTV 1080p]
Формат видео: AVI
Видео: XviD, 1791 kb/s, 720x384
Аудио: MP3, 128 kb/s (2 ch)

Media info

H:\Machete.ubivaet.2013.D.HDTVRip.1400MB.avi
General
Complete name : H:\Machete.ubivaet.2013.D.HDTVRip.1400MB.avi
Format : AVI
Format/Info : Audio Video Interleave
File size : 1.37 GiB
Duration : 1h 43mn
Overall bit rate : 1 901 Kbps
Movie name : Machete.ubivaet.2013.D.HDTVRip.1400MB.INTERCINEMA
Director : INTERCINEMA
Genre : Action/Comedy
Writing application : VirtualDubMod 1.5.10.2 (build 2540/release)
Original source form/Name : Movie
Copyright : http://intercinema.net
Video #0
ID : 0
Format : MPEG-4 Visual
Format profile : Advanced [email protected]
Format settings, BVOP : 2
Format settings, QPel : No
Format settings, GMC : No warppoints
Format settings, Matrix : Custom
Codec ID : XVID
Codec ID/Hint : XviD
Duration : 1h 43mn
Bit rate : 1 764 Kbps
Width : 720 pixels
Height : 384 pixels
Display aspect ratio : 1.85:1
Frame rate : 25.000 fps
Color space : YUV
Chroma subsampling : 4:2:0
Bit depth : 8 bits
Scan type : Progressive
Compression mode : Lossy
Bits/(Pixel*Frame) : 0.255
Stream size : 1.27 GiB (93%)
Writing library : XviD 1.2.1 (UTC 2008-12-04)
Audio #1
ID : 1
Format : AC-3
Format/Info : Audio Coding 3
Mode extension : CM (complete main)
Format settings, Endianness : Big
Codec ID : 2000
Duration : 1h 43mn
Bit rate mode : Constant
Bit rate : 128 Kbps
Channel(s) : 2 channels
Channel positions : Front: L R
Sampling rate : 48.0 KHz
Bit depth : 16 bits
Compression mode : Lossy
Stream size : 94.4 MiB (7%)
Alignment : Split accross interleaves
Interleave, duration : 40 ms (1.00 video frame)
Interleave, preload duration : 500 ms

Скриншоты

Создавать темы 16-Ноя-2013 18:42

[Профиль]  [ЛС] 

Anakin92

Стаж: 4 года 10 месяцев

Сообщений: 47

ну когда релиз?

Создавать темы 16-Ноя-2013 19:25

[Профиль]  [ЛС] 

skydream

Стаж: 4 года 9 месяцев

Сообщений: 65

а че раздавать никто не собирается?

Создавать темы 16-Ноя-2013 22:41

[Профиль]  [ЛС] 

skydream

Стаж: 4 года 9 месяцев

Сообщений: 65

у меня день и ночь включен торрент на раздачу и прием извините если свету вырубают но я не убегаю типо скачал и хАй с вами ребята давайте жить дружно Леопольд просит)))

Создавать темы 16-Ноя-2013 22:43

[Профиль]  [ЛС] 

Fuzuliy

Стаж: 5 лет 8 месяцев

Сообщений: 202

Симпатии: 12

звук плохой

Создавать темы 17-Ноя-2013 17:39

[Профиль]  [ЛС] 

Anakin92

Стаж: 4 года 10 месяцев

Сообщений: 47

звук отличный

Создавать темы 17-Ноя-2013 20:33

[Профиль]  [ЛС] 

Mister-X

Стаж: 7 лет

Сообщений: 34

1-я часть была круче чем эта!!сплошная фантастика в стиле Роберта Родригеса (Дети шпионов) ! а 3-я ваше... at

Создавать темы 18-Ноя-2013 20:13

[Профиль]  [ЛС] 

Shock

Стаж: 7 лет

Сообщений: 85

Симпатии: 1

нереально тупое кино bu


Последний раз редактировалось: Shock (2014-03-10 18:48), всего редактировалось 1 раз

Создавать темы 22-Ноя-2013 00:01

[Профиль]  [ЛС] 

John_Shady

Стаж: 5 лет 1 месяц

Сообщений: 10

Симпатии: 2

Прикольный фильм. )))
Жду продолжения.

Создавать темы 25-Ноя-2013 01:16

[Профиль]  [ЛС] 

Yankoo

Стаж: 4 года 6 месяцев

Сообщений: 28

Симпатии: 1

Трээшш не тратьте время на это уг!!!

Создавать темы 27-Ноя-2013 17:45

[Профиль]  [ЛС] 

andiman

Стаж: 5 лет

Сообщений: 134

Симпатии: 1

звездные войны...ё-маё...))) отстойный фильм.

Создавать темы 28-Ноя-2013 19:09

[Профиль]  [ЛС] 

RedBull

Стаж: 6 лет 7 месяцев

Сообщений: 185

Симпатии: 4

А где джессика альба?

Создавать темы 30-Ноя-2013 04:32

[Профиль]  [ЛС] 

RichmanVIP

Стаж: 4 года 8 месяцев

Сообщений: 97

Симпатии: 4

Мачете убивает / Machete Kills (Роберт Родригес) [2013 г., боевик, комедия, HDRip] [Лицензия]

Создавать темы 09-Дек-2013 21:46

[Профиль]  [ЛС] 

dimabek

Стаж: 6 лет 10 месяцев

Сообщений: 87

Симпатии: 13

А где джессика альба?
в самом начале фильма в костюме нинзя

Создавать темы 09-Дек-2013 22:32

[Профиль]  [ЛС] 

Loky

Стаж: 4 года 4 месяца

Сообщений: 75

Симпатии: 8

Ребята скорости дайте!:)

Создавать темы 10-Дек-2013 06:05

[Профиль]  [ЛС] 
Показать сообщения:    
Ответить на тему

Текущее время: 20-Ноя 16:57

Часовой пояс: UTC + 5



Вы не можете начинать темы
Вы не можете отвечать на сообщения
Вы не можете редактировать свои сообщения
Вы не можете удалять свои сообщения
Вы не можете голосовать в опросах
Вы не можете прикреплять файлы к сообщениям
Вы не можете скачивать файлы