11.6 / 11.6 (Филипп Годо / Philippe Godeau) [2013 г., триллер, HDRip] [MVO (НТВ+)]

Ответить на тему
 

Suxrob89 ®

Стаж: 7 лет 2 месяца

Сообщений: 933

Симпатии: 564

-11.6 / 11.6- Страна: Франция / Pan Européenne, Wild Bunch, France 3 Cinéma
Жанр: триллер
Год выпуска: 2013
Продолжительность: 01:41:45
Перевод: Профессиональный (многоголосый закадровый) [НТВ+]
Cубтитры: нет-Режиссер: Филипп Годо / Philippe Godeau-В ролях: Франсуа Клюзе, Боли Ланнерс, Корина Масьеро, Хуана Акоста, Жоан Либеро, Мирей Франчино, Стефан Войтович, Жан-Клод Лека, Эрик Бернард, Карим Леклу-Описание: Тони мягко нажимает на педаль газа в своем бронированном фургоне. У него за спиной 11,6 миллиона евро! За несколько дней обычный охранник становится самым известным человеком в стране. Газеты и телевидение сходят с ума, рассказывая о совершенном ограблении века. Это его месть за унижения, которые он терпел годами от своего босса и системы.-Доп.информация:
 -Качество видео: HDRip
Формат видео: AVI
Видео кодэк: XviD
Аудио кодэк: AC3
Видео: XviD, 1722 kb/s, 23,976fps, 720x304
Аудио: AC3, 48.0 KHz, 192 kb/s, (2 ch)-

MediaInfo

H:\Odinadcatj.6.2013.P.HDRip.avi
General
Complete name : H:\Odinadcatj.6.2013.P.HDRip.avi
Format : AVI
Format/Info : Audio Video Interleave
File size : 1.37 GiB
Duration : 1h 41mn
Overall bit rate : 1 924 Kbps
Writing application : VirtualDubMod 1.5.10.2 (build 2540/release)
Writing library : VirtualDubMod build 2540/release
Video #0
ID : 0
Format : MPEG-4 Visual
Format profile : Advanced Simple@L5
Format settings, BVOP : 2
Format settings, QPel : No
Format settings, GMC : No warppoints
Format settings, Matrix : Default (MPEG)
Codec ID : XVID
Codec ID/Hint : XviD
Duration : 1h 41mn
Bit rate : 1 723 Kbps
Width : 720 pixels
Height : 304 pixels
Display aspect ratio : 2.35:1
Frame rate : 23.976 fps
Color space : YUV
Chroma subsampling : 4:2:0
Bit depth : 8 bits
Scan type : Progressive
Compression mode : Lossy
Bits/(Pixel*Frame) : 0.328
Stream size : 1.22 GiB (90%)
Writing library : XviD 1.2.1 (UTC 2008-12-04)
Audio #1
ID : 1
Format : AC-3
Format/Info : Audio Coding 3
Mode extension : CM (complete main)
Format settings, Endianness : Big
Codec ID : 2000
Duration : 1h 41mn
Bit rate mode : Constant
Bit rate : 192 Kbps
Channel(s) : 2 channels
Channel positions : Front: L R
Sampling rate : 48.0 KHz
Bit depth : 16 bits
Compression mode : Lossy
Stream size : 140 MiB (10%)
Alignment : Split accross interleaves
Interleave, duration : 42 ms (1.00 video frame)
Interleave, preload duration : 500 ms

Скриншот c названием фильма

Скриншоты








Последний раз редактировалось: Suxrob89 (2013-11-17 13:42), всего редактировалось 1 раз

Создавать темы 16-Ноя-2013 23:17

[Профиль]  [ЛС] 

4LIFEIP

Стаж: 4 года 6 месяцев

Сообщений: 127

Симпатии: 1

хорошая картинка.

Создавать темы 16-Ноя-2013 23:19

[Профиль]  [ЛС] 

Иви

Стаж: 5 лет 9 месяцев

Сообщений: 688

Симпатии: 65

шапку подправил

Создавать темы 17-Ноя-2013 13:42

[Профиль]  [ЛС] 

Cutchelly

Стаж: 4 года 11 месяцев

Сообщений: 25

Симпатии: 1

оригинальная дорожка есть(англ.) ??)

Создавать темы 17-Ноя-2013 19:45

[Профиль]  [ЛС] 

uzcustomer

Стаж: 5 лет 7 месяцев

Сообщений: 61

Симпатии: 39

Очень скучный фильм

Создавать темы 20-Ноя-2013 21:00

[Профиль]  [ЛС] 

skydream

Стаж: 4 года 8 месяцев

Сообщений: 65

согласен по скринам и превью видно скучный

Создавать темы 20-Ноя-2013 21:46

[Профиль]  [ЛС] 
Показать сообщения:    
Ответить на тему

Текущее время: 19-Окт 17:51

Часовой пояс: UTC + 5



Вы не можете начинать темы
Вы не можете отвечать на сообщения
Вы не можете редактировать свои сообщения
Вы не можете удалять свои сообщения
Вы не можете голосовать в опросах
Вы не можете прикреплять файлы к сообщениям
Вы не можете скачивать файлы