NG. Взгляд изнутри: Гугл / Inside: Google (2010) HDTVRip [H.264/720p-LQ] [2010 г., Документальный, HDTVRip-AVC]

Ответить на тему
 

Mercuriy ®

Стаж: 5 лет 9 месяцев

Сообщений: 418

Симпатии: 100

NG. Взгляд изнутри: Гугл / Inside: Google
Год выпуска: 2010
Производство: Телекомпания: National Geographic
Страна: США
Жанр: Документальный
Продолжительность: 00:45:04
Перевод: Одноголосый закадровый (профессиональный)
Язык субтитров: русский, английский--Описание: Фильм рассказывает об истории возникновения, настоящем и ближайшем будующем корпорации Google. Эксперты попытаются объяснить главные принципы работы Google. Фильм, снимался в Китае, России и в "Googleplex" - штаб-квартире корпорации в Силиконовой Долине.--Видеокодек: MPEG-4 AVC/H.264
Битрейт видео: ~1 874 Кбит/с
Размер кадра: 1280 x 720
Качество видео: HDTVRip [720p-LQ]
Аудио:
1. [русский] MP3, 2.0 ch, 192 Кбит/с
2. [english] AC3, 5.1 ch, 448 Кбит/с--

Media Info

General
Unique ID : 235229234585601294120625810569012265704 (0xB0F780AEDFD185828DD999A75A4942E8)
Complete name : D:\Inside.Google.(2010).HDTVRip.720p.mkv
Format : Matroska
Format version : Version 2
File size : 806 MiB
Duration : 45mn 4s
Overall bit rate : 2 500 Kbps
Encoded date : UTC 2012-04-25 04:05:33
Writing application : mkvmerge v5.5.0 ('Healer') built on Apr 6 2012 21:43:24
Writing library : libebml v1.2.3 + libmatroska v1.3.0
Video
ID : 1
Format : AVC
Format/Info : Advanced Video Codec
Format profile : [email protected]
Format settings, CABAC : Yes
Format settings, ReFrames : 5 frames
Muxing mode : Header stripping
Codec ID : V_MPEG4/ISO/AVC
Duration : 45mn 4s
Bit rate : 1 874 Kbps
Width : 1 280 pixels
Height : 720 pixels
Display aspect ratio : 16:9
Frame rate mode : Constant
Frame rate : 25.000 fps
Color space : YUV
Chroma subsampling : 4:2:0
Bit depth : 8 bits
Scan type : Progressive
Bits/(Pixel*Frame) : 0.081
Stream size : 604 MiB (75%)
Writing library : x264 core 120 r2164 da19765
Encoding settings : cabac=1 / ref=5 / deblock=1:0:0 / analyse=0x3:0x113 / me=umh / subme=8 / psy=1 / psy_rd=1.00:0.00 / mixed_ref=1 / me_range=16 / chroma_me=1 / trellis=1 / 8x8dct=1 / cqm=0 / deadzone=21,11 / fast_pskip=1 / chroma_qp_offset=-2 / threads=6 / sliced_threads=0 / nr=0 / decimate=1 / interlaced=0 / bluray_compat=0 / constrained_intra=0 / bframes=3 / b_pyramid=2 / b_adapt=2 / b_bias=0 / direct=3 / weightb=1 / open_gop=0 / weightp=2 / keyint=250 / keyint_min=25 / scenecut=40 / intra_refresh=0 / rc_lookahead=50 / rc=crf / mbtree=1 / crf=21.0 / qcomp=0.60 / qpmin=0 / qpmax=69 / qpstep=4 / ip_ratio=1.40 / aq=1:1.00
Language : English
Default : Yes
Forced : No
Audio #1
ID : 2
Format : MPEG Audio
Format version : Version 1
Format profile : Layer 3
Mode : Joint stereo
Mode extension : MS Stereo
Muxing mode : Header stripping
Codec ID : A_MPEG/L3
Codec ID/Hint : MP3
Duration : 45mn 4s
Bit rate mode : Constant
Bit rate : 128 Kbps
Channel(s) : 2 channels
Sampling rate : 48.0 KHz
Compression mode : Lossy
Stream size : 41.3 MiB (5%)
Writing library : LAME3.98r Є
Language : Russian
Default : Yes
Forced : No
Audio #2
ID : 3
Format : AC-3
Format/Info : Audio Coding 3
Mode extension : CM (complete main)
Format settings, Endianness : Big
Muxing mode : Header stripping
Codec ID : A_AC3
Duration : 45mn 4s
Bit rate mode : Constant
Bit rate : 448 Kbps
Channel(s) : 6 channels
Channel positions : Front: L C R, Side: L R, LFE
Sampling rate : 48.0 KHz
Bit depth : 16 bits
Compression mode : Lossy
Delay relative to video : 8ms
Stream size : 144 MiB (18%)
Language : English
Default : No
Forced : No

Создавать темы 18-Ноя-2013 00:21

[Профиль]  [ЛС] 
Показать сообщения:    
Ответить на тему

Текущее время: 18-Авг 23:21

Часовой пояс: UTC + 5



Вы не можете начинать темы
Вы не можете отвечать на сообщения
Вы не можете редактировать свои сообщения
Вы не можете удалять свои сообщения
Вы не можете голосовать в опросах
Вы не можете прикреплять файлы к сообщениям
Вы не можете скачивать файлы