Пленницы / Prisoners (Дени Вильнёв) [2013 г., Драма, Криминал, Триллер, WEB-DLRip, HD (720p)]

Ответить на тему
 

vea62 ®

Стаж: 5 лет 1 месяц

Сообщений: 31

Симпатии: 3

Пленницы / Prisoners
Год выпуска: 2013
Страна: США
Жанр: Драма, Криминал, Триллер
Продолжительность: 02:33:09
Перевод: Профессиональный (многоголосый, закадровый) [BaibaKo]
Режиссер: Дени Вильнёв
В ролях: Виола Дэвис, Джейк Джилленхол, Мария Белло, Мелисса Лео, Пол Дано, Терренс Ховард, Хью Джекман, Дилан Миннетт, Зои Борд, Эрин Герасимович
Описание: Келлер Довер сталкивается с самым большим кошмаром каждого родителя: его шестилетняя дочь пропала вместе с подругой. Время бежит, девочки не возвращаются, и паника достигает своего предела. Единственная зацепка — обветшалый фургончик, который был припаркован на их улице, когда девочки играли во дворе. Детектив Локки, возглавляющий расследование, арестовывает его водителя, Алекса Джонса, но вскоре полиция вынуждена его отпустить из-за нехватки улик. Полиция медлит, а обезумевший от горя отец берет дело в свои руки. Но как далеко готов зайти Келлер в поисках девочек?
Доп. информация:
Рейтинг КиноПоиск.Ru: 7.964 (8067)
Рейтинг IMDb: 8.1 (39907)
Качество: WEB-DLRip
Формат: MKV
Видео кодек: MPEG2
Аудио кодек: AC3
Видео: 1280x720 (HD), AVC, 3933 Кбит/с
Аудио #1: Русский (AC-3, 384 Кбит/с, 6 каналов, 48,0 КГц, INTERCINEMA)
Аудио #2: Английский (AC-3, 384 Кбит/с, 6 каналов, 48,0 КГц)
Субтитры: Английские

Скриншоты




MediaInfo

Общее
Уникальный идентификатор : 235368356572016169630275547867526418860 (0xB1124BED3667C5B1A6BC59D2B23F51AC)
Полное имя : C:\Downloads\Видео\Plennicy.2013.P.WEBDL.720p.mkv
Формат : Matroska
Версия формата : Version 4 / Version 2
Размер файла : 5,13 Гбайт
Продолжительность : 2 ч. 33 м.
Общий поток : 4796 Кбит/сек
Дата кодирования : UTC 2013-11-17 16:34:13
Программа кодирования : mkvmerge v6.5.0 ('Isn't she lovely') built on Oct 20 2013 12:50:05
Библиотека кодирования : libebml v1.3.0 + libmatroska v1.4.1
Видео
Идентификатор : 1
Формат : AVC
Формат/Информация : Advanced Video Codec
Профиль формата : [email protected]
Параметр CABAC формата : Нет
Параметр ReFrames формата : 2 кадра
Идентификатор кодека : V_MPEG4/ISO/AVC
Продолжительность : 2 ч. 33 м.
Битрейт : 3933 Кбит/сек
Ширина : 1280 пикселей
Высота : 720 пикселей
Соотношение сторон : 16:9
Режим частоты кадров : Постоянный
Частота кадров : 23,976 кадра/сек
Цветовое пространство : YUV
Субдискретизация насыщенности : 4:2:0
Битовая глубина : 8 бит
Тип развёртки : Прогрессивная
Бит/(Пиксели*Кадры) : 0.178
Размер потока : 4,21 Гбайт (82%)
Язык : English
Default : Да
Forced : Да
Основные цвета : BT.709
Характеристики трансфера : BT.709
Коэффициенты матрицы : BT.709
Аудио #1
Идентификатор : 2
Формат : AC-3
Формат/Информация : Audio Coding 3
Расширение режима : CM (complete main)
Параметр Endianness формата : Big
Идентификатор кодека : A_AC3
Продолжительность : 2 ч. 33 м.
Вид битрейта : Постоянный
Битрейт : 384 Кбит/сек
Каналы : 6 каналов
Расположение каналов : Front: L C R, Side: L R, LFE
Частота : 48,0 КГц
Битовая глубина : 16 бит
Метод сжатия : С потерями
Размер потока : 421 Мбайт (8%)
Заголовок : INTERCINEMA
Язык : Russian
Default : Да
Forced : Нет
Аудио #2
Идентификатор : 3
Формат : AC-3
Формат/Информация : Audio Coding 3
Расширение режима : CM (complete main)
Параметр Endianness формата : Big
Идентификатор кодека : A_AC3
Продолжительность : 2 ч. 33 м.
Вид битрейта : Постоянный
Битрейт : 384 Кбит/сек
Каналы : 6 каналов
Расположение каналов : Front: L C R, Side: L R, LFE
Частота : 48,0 КГц
Битовая глубина : 16 бит
Метод сжатия : С потерями
Размер потока : 421 Мбайт (8%)
Язык : English
Default : Нет
Forced : Нет
Текст
Идентификатор : 4
Формат : UTF-8
Идентификатор кодека : S_TEXT/UTF8
Идентификатор кодека/Информация : UTF-8 Plain Text
Язык : English
Default : Нет
Forced : Нет
Меню
00:00:00.000 : en:1
00:08:50.000 : en:2
00:19:51.000 : en:3
00:30:18.000 : en:4
00:40:23.000 : en:5
00:49:36.000 : en:6
00:59:27.000 : en:7
01:08:24.000 : en:8
01:17:29.000 : en:9
01:29:17.000 : en:10
01:41:34.000 : en:11
01:51:37.000 : en:12
01:59:39.000 : en:13
02:11:46.000 : en:14
02:19:50.000 : en:15
02:25:53.000 : en:16


Последний раз редактировалось: vea62 (2013-11-19 17:40), всего редактировалось 1 раз

Создавать темы 19-Ноя-2013 15:27

[Профиль]  [ЛС] 
Показать сообщения:    
Ответить на тему

Текущее время: 23-Ноя 14:15

Часовой пояс: UTC + 5



Вы не можете начинать темы
Вы не можете отвечать на сообщения
Вы не можете редактировать свои сообщения
Вы не можете удалять свои сообщения
Вы не можете голосовать в опросах
Вы не можете прикреплять файлы к сообщениям
Вы не можете скачивать файлы