Сталинград (Фёдор Бондарчук) [2013 г., военный, драма, боевик, DVDRip] [Лицензия]

Страницы :  1, 2  След.

Ответить на тему
 

Suxrob89 ®

Стаж: 7 лет 4 месяца

Сообщений: 933

Симпатии: 564

- - - Год выпуска: 2013
Страна: Россия / Арт Пикчерс Студия, Нон-стоп Продакшн
Жанр: военный, драма, боевик
Продолжительность: 02:05:29
Перевод: Оригинальное (русский) | Лицензия |-Режиссер: Фёдор Бондарчук-В ролях: Пётр Фёдоров, Томас Кречман, Мария Смольникова, Яна Студилина, Дмитрий Лысенков, Алексей Барабаш, Андрей Смоляков, Сергей Бондарчук, Хайнер Лаутербах, Олег Тилькин-Описание: Сталинград. Советские войска планируют контрнаступление на немецкие части, занявшие правый берег Волги. Наступление сорвано. Лишь разведчикам под командованием капитана Громова удается перебраться на другой берег и закрепиться в одном из домов. Им дан приказ удержать его любой ценой. Кроме нескольких чудом уцелевших советских солдат они находят в доме его последнюю жительницу — 19-летнюю Катю. Приказ отбить дом, захваченный противником, получает немецкий офицер Кан. На фоне одного из самых кровопролитных сражений в истории человечества разворачиваются истории любви и драматического противостояния характеров.- -Качество: DVDRip
Формат: AVI
Видео кодек: XviD
Аудио кодек: AC3
Видео: 720x304, 1204 kb/s Kbps kb/s
Аудио: AC3, 6 ch, 448 kb/s

Media info

Общее
Полное имя                               : D:\Раздачи\Stalingrad.2013.O.DVDRip.1.46GB.avi
Формат                                   : AVI
Формат/Информация                        : Audio Video Interleave
Размер файла                             : 1,46 Гбайт
Продолжительность                        : 2 ч. 5 м.
Общий поток                              : 1661 Кбит/сек
Программа кодирования                    : VirtualDubMod 1.5.10.3 | (build 2550/release)
Библиотека кодирования                   : VirtualDubMod build 2550/release
Видео
Идентификатор                            : 0
Формат                                   : MPEG-4 Visual
Профиль формата                          : Advanced [email protected]
Параметр BVOP формата                    : 1
Параметр QPel формата                    : Нет
Параметр GMC формата                     : Без точки перехода
Параметр матрицы формата                 : Выборочная
Идентификатор кодека                     : XVID
Идентификатор кодека/Подсказка           : XviD
Продолжительность                        : 2 ч. 5 м.
Битрейт                                  : 1204 Кбит/сек
Ширина                                   : 720 пикселей
Высота                                   : 304 пикселя
Соотношение сторон                       : 2,35:1
Частота кадров                           : 25,000 кадров/сек
Цветовое пространство                    : YUV
Субдискретизация насыщенности            : 4:2:0
Битовая глубина                          : 8 бит
Тип развёртки                            : Прогрессивная
Метод сжатия                             : С потерями
Бит/(Пиксели*Кадры)                      : 0.220
Размер потока                            : 1,06 Гбайт (72%)
Библиотека кодирования                   : XviD 1.2.1 (UTC 2008-12-04)
Аудио
Идентификатор                            : 1
Формат                                   : AC-3
Формат/Информация                        : Audio Coding 3
Расширение режима                        : CM (complete main)
Параметр Endianness формата              : Big
Идентификатор кодека                     : 2000
Продолжительность                        : 2 ч. 5 м.
Вид битрейта                             : Постоянный
Битрейт                                  : 448 Кбит/сек
Каналы                                   : 6 каналов
Расположение каналов                     : Front: L C R, Side: L R, LFE
Частота                                  : 48,0 КГц
Битовая глубина                          : 16 бит
Метод сжатия                             : С потерями
Размер потока                            : 402 Мбайт (27%)
Выравнивание                             : Разделение по промежуткам
Продолжительность промежутка             : 40  мс. (1,00 видеокадр)
Время предзагрузки промежутка            : 500  мс.

Скриншоты



Последний раз редактировалось: Suxrob89 (2013-11-30 07:23), всего редактировалось 2 раз(а)

Создавать темы 20-Ноя-2013 07:41

[Профиль]  [ЛС] 

Rapide

Стаж: 7 лет

Сообщений: 67

помогу с раздачей.

Создавать темы 20-Ноя-2013 10:05

[Профиль]  [ЛС] 

vanfank

Стаж: 4 года 7 месяцев

Сообщений: 141

Симпатии: 5

чувак как это российский и ТС

Создавать темы 20-Ноя-2013 12:27

[Профиль]  [ЛС] 

Топик был перенесен из форума CamRip\Telesync\SATRip\TVRip в форум CamRip\Telesync\SATRip\TVRip

Иви

Создавать темы 20-Ноя-2013 12:42

 

Иви

Стаж: 5 лет 11 месяцев

Сообщений: 688

Симпатии: 65

шапку подправил

Создавать темы 20-Ноя-2013 12:44

[Профиль]  [ЛС] 

тролль

Стаж: 4 года 5 месяцев

Сообщений: 49

Симпатии: 2

рейт по аймдб))

Создавать темы 20-Ноя-2013 20:34

[Профиль]  [ЛС] 

STELS

Стаж: 5 лет 8 месяцев

Сообщений: 13

а что не качает нет раздачи дайте раздачу плизз!!

Создавать темы 24-Ноя-2013 17:04

[Профиль]  [ЛС] 

FissleR

Стаж: 6 лет 6 месяцев

Сообщений: 94

чувак как это российский и ТС
звук с кинозала, со всякими посторонними шорохами, смешками, охами, ахами и прочим.

Создавать темы 24-Ноя-2013 19:50

[Профиль]  [ЛС] 

good_luck

Стаж: 5 лет 2 месяца

Сообщений: 39

Симпатии: 1

Ветеран битвы за Сталинград о к/ф «Сталинград» http://mover.uz/watch/YzmAwMM/

Создавать темы 28-Ноя-2013 12:34

[Профиль]  [ЛС] 

Топик был перенесен из форума CamRip\Telesync\SATRip\TVRip в форум Фильмы за 2013 (новинки)

Suxrob89

Создавать темы 30-Ноя-2013 07:24

 

АлександрС

Стаж: 5 лет 3 месяца

Сообщений: 56

Симпатии: 1

фильм так себе, одноразовый

Создавать темы 30-Ноя-2013 14:42

[Профиль]  [ЛС] 

AZIK6249

Стаж: 4 года 6 месяцев

Сообщений: 7

спасибо автору!!!

Создавать темы 30-Ноя-2013 15:13

[Профиль]  [ЛС] 

ribas

Стаж: 5 лет 5 месяцев

Сообщений: 37

Симпатии: 1

Ветеран битвы за Сталинград о к/ф «Сталинград» http://mover.uz/watch/YzmAwMM/
от фильма сильно отдает книгами сталиградских ветеранов - Василия Гроссмана "Жизнь и Судьба" и Виктора Некрасова "В окопах Сталинграда". Так что. Фильм скорее не удался, но близок к оригиналу - воспоминаниям ветеранов-литераторов.

Создавать темы 02-Дек-2013 17:50

[Профиль]  [ЛС] 

pavel_79

Стаж: 5 лет 8 месяцев

Сообщений: 97

Симпатии: 3

а что китайские ироглифы на постере делают?с китайского диска что ли?

Создавать темы 02-Дек-2013 17:59

[Профиль]  [ЛС] 

Hasanbek

Стаж: 6 лет 7 месяцев

Сообщений: 161

Симпатии: 6

дайте скорости

Создавать темы 05-Дек-2013 07:11

[Профиль]  [ЛС] 
Показать сообщения:    
Ответить на тему

Текущее время: 15-Дек 07:46

Часовой пояс: UTC + 5



Вы не можете начинать темы
Вы не можете отвечать на сообщения
Вы не можете редактировать свои сообщения
Вы не можете удалять свои сообщения
Вы не можете голосовать в опросах
Вы не можете прикреплять файлы к сообщениям
Вы не можете скачивать файлы