Биллу / Billu (Приядаршан) [2009 г., драма, комедия, DVDRip]

Ответить на тему
 

master_mig ®

Стаж: 5 лет 10 месяцев

Сообщений: 7

Биллу / Billu
Год выпуска: 2009
Страна: Индия
Жанр: драма, комедия
Продолжительность: 02:17:08
Перевод: Профессиональный (полное дублирование) Узбек тилида
Режиссер: Приядаршан
В ролях: Ирфан Кхан, Шах Рукх Кхан, Лара Датта, Ом Пури, Раджпал Ядав, Асрани, Карина Капур, Дипика Падукон, Удай Атролийер, Ахсан Бакши.
Описание: Простой человек, брадобрей Биллас Рао Пардеси преспокойно живёт с женой Биндия и двумя детьми в селе Будбуда (штат Уттар Прадеш). У него из всего инструментария только тупые ножницы и щербатая расчёска. У него нет даже денег, чтобы купить новую расчёску и помазок. Он не может оплатить счёт за учёбу детей. Его жена занимает у соседей масло для светильника, так как в доме за неуплату отключено электричество. И тем не менее, Биллу мечтает о вращающемся кресле и модных стрижках.
Но вот однажды в село на съёмки приезжает суперзвезда Сахир Кхан. По деревне поползли слухи, что Биллу и Сахир дружат ещё с детских лет. И теперь все в селе стремятся заручиться поддержкой парикмахера, что бы тот при случае замолвил за них словечко перед большим человеком из города. Биллу же не горит желанием встречаться со своим старым другом, которого когда-то он выручил из беды. Биллу кажется, что Сахиру неинтересны воспоминания прошлой жизни, но Сахир — не такой человек…
сборы в США $754 928
сборы в мире + $7 279 869 = $8 034 797

Качество: DVDRip
Формат: DVD Video
Видео кодек: Другой MPEG4
Аудио кодек: AC3
Видео: 720x480, 3000 kbps
Аудио: 48000Hz 6ch 448kbps, 48.0 KHz, 16 bits.

Медиа Инфо

Format : MPEG-PS
File size : 1 000 MiB
Duration : 39mn 31s
Overall bit rate : 3 538 Kbps
Video
ID : 224 (0xE0)
Format : MPEG Video
Format version : Version 2
Format profile : [email protected]
Format settings, BVOP : Yes
Format settings, Matrix : Default
Format settings, GOP : M=3, N=15
Duration : 39mn 31s
Bit rate : 3 000 Kbps
Width : 720 pixels
Height : 480 pixels
Display aspect ratio : 16:9
Frame rate : 29.970 fps
Standard : NTSC
Color space : YUV
Chroma subsampling : 4:2:0
Bit depth : 8 bits
Scan type : Interlaced
Scan order : Top Field First
Compression mode : Lossy
Bits/(Pixel*Frame) : 0.290
Stream size : 853 MiB (85%)
Audio
ID : 189 (0xBD)-128 (0x80)
Format : AC-3
Format/Info : Audio Coding 3
Mode extension : CM (complete main)
Muxing mode : DVD-Video
Duration : 39mn 30s
Bit rate mode : Constant
Bit rate : 448 Kbps
Channel(s) : 6 channels
Channel positions : Front: L C R, Side: L R, LFE
Sampling rate : 48.0 KHz
Bit depth : 16 bits
Compression mode : Lossy
Stream size : 127 MiB (13%)

Скриншоты








Последний раз редактировалось: master_mig (2013-11-20 22:25), всего редактировалось 2 раз(а)

Создавать темы 20-Ноя-2013 21:20

[Профиль]  [ЛС] 

jas81

Стаж: 4 года

Сообщений: 108

Симпатии: 7

кто нибудь есть

Создавать темы 17-Янв-2014 23:45

[Профиль]  [ЛС] 

jas81

Стаж: 4 года

Сообщений: 108

Симпатии: 7

скорост дайте нарооооод
----------------
2 месяца качал потом удалил , терпения не хватило, лучше диск куплю

Создавать темы 08-Июл-2014 21:45

[Профиль]  [ЛС] 
Показать сообщения:    
Ответить на тему

Текущее время: 21-Ноя 22:33

Часовой пояс: UTC + 5



Вы не можете начинать темы
Вы не можете отвечать на сообщения
Вы не можете редактировать свои сообщения
Вы не можете удалять свои сообщения
Вы не можете голосовать в опросах
Вы не можете прикреплять файлы к сообщениям
Вы не можете скачивать файлы