РЭД 2 / RED 2 (Дин Паризо) [2013 г., боевик, комедия, BDRip-AVC] Dub

Ответить на тему
 

AZIK6249 ®

Стаж: 4 года 5 месяцев

Сообщений: 7

РЭД 2 / RED 2 Год выпуска: 2013
Страна: США, Франция, Канада
Жанр: боевик, комедия
Продолжительность: 01:55:48
Перевод: Профессиональный (полное дублирование) [Лицензия]
Субтитры: Английские
Режиссер: Дин Паризо
В ролях: Брюс Уиллис, Джон Малкович, Мэри-Луиз Паркер, Кэтрин Зета-Джонс, Ли Бён Хон, Энтони Хопкинс, Хелен Миррен, Брайан Кокс, Дэвид Тьюлис, Чжон Кон Ли.
Описание: Вышедший на пенсию тайный агент ЦРУ Фрэнк Мозес объединяется с командой старых друзей, элитных оперативников, с целью найти пропавшее оружие массового уничтожения. Чтобы его заполучить, придётся прорываться сквозь армии безжалостных наёмников, террористов и всегда жаждущих власти политиков.
Миссия приводит Фрэнка и его разношёрстную команду вышедших на пенсию убийц в Париж, Лондон и Москву. В их арсенале есть только хитрость, старая сноровка и помощь друг друга, чтобы спасти мир и при этом самим остаться в живых.
Доп. информация: +12 зрителям, достигшим 12 лет
Качество: BDRip-AVC
Формат: MKV
Видео кодек: AVC
Аудио кодек: AC3
Видео: AVC, 1024x428, 2 500 Kbps, ~24000 fps
Аудио: AC-3, 384 Kbps, 48.0 KHz, 6-ch, RUS
Аудио: AC-3, 384 Kbps, 48.0 KHz, 6-ch, ENG

Скриншоты






MediaINFO

General
Unique ID : 196822616814813633427444941796921805101 (0x9412A83AB22F62D7B0815278A1AB892D)
Complete name : H:\Фильмы\Red.2.2013.D.Eng.BDRIP-AVC.x264.(AZIK6249).mkv
Format : Matroska
Format version : Version 4 / Version 2
File size : 2.63 GiB
Duration : 1h 55mn
Overall bit rate : 3 254 Kbps
Encoded date : UTC 2010-02-22 21:41:31
Writing application : mkvmerge v5.9.0 ('On The Loose') built on Dec 9 2012 15:37:01
Writing library : libebml v1.3.0 + libmatroska v1.4.0
Video
ID : 1
Format : AVC
Format/Info : Advanced Video Codec
Format profile : [email protected]
Format settings, CABAC : No
Format settings, ReFrames : 1 frame
Muxing mode : Header stripping
Codec ID : V_MPEG4/ISO/AVC
Duration : 1h 55mn
Bit rate : 2 500 Kbps
Width : 1 024 pixels
Height : 428 pixels
Display aspect ratio : 2.40:1
Frame rate mode : Constant
Frame rate : 23.976 fps
Color space : YUV
Chroma subsampling : 4:2:0
Bit depth : 8 bits
Scan type : Progressive
Bits/(Pixel*Frame) : 0.238
Stream size : 1.96 GiB (74%)
Writing library : x264 core 120
Encoding settings : cabac=0 / ref=1 / deblock=1:0:0 / analyse=0x1:0x111 / me=hex / subme=2 / psy=1 / psy_rd=1.00:0.00 / mixed_ref=0 / me_range=16 / chroma_me=1 / trellis=0 / 8x8dct=0 / cqm=0 / deadzone=21,11 / fast_pskip=1 / chroma_qp_offset=0 / threads=6 / sliced_threads=0 / nr=0 / decimate=1 / interlaced=0 / bluray_compat=0 / constrained_intra=0 / bframes=0 / weightp=0 / keyint=250 / keyint_min=23 / scenecut=40 / intra_refresh=0 / rc_lookahead=10 / rc=abr / mbtree=1 / bitrate=2500 / ratetol=1.0 / qcomp=0.60 / qpmin=0 / qpmax=69 / qpstep=4 / ip_ratio=1.40 / aq=1:1.00
Language : English
Default : Yes
Forced : No
Audio #1
ID : 2
Format : AC-3
Format/Info : Audio Coding 3
Mode extension : CM (complete main)
Format settings, Endianness : Big
Muxing mode : Header stripping
Codec ID : A_AC3
Duration : 1h 55mn
Bit rate mode : Constant
Bit rate : 384 Kbps
Channel(s) : 6 channels
Channel positions : Front: L C R, Side: L R, LFE
Sampling rate : 48.0 KHz
Bit depth : 16 bits
Compression mode : Lossy
Stream size : 318 MiB (12%)
Language : Russian
Default : Yes
Forced : Yes
Audio #2
ID : 3
Format : AC-3
Format/Info : Audio Coding 3
Mode extension : CM (complete main)
Format settings, Endianness : Big
Muxing mode : Header stripping
Codec ID : A_AC3
Duration : 1h 55mn
Bit rate mode : Constant
Bit rate : 384 Kbps
Channel(s) : 6 channels
Channel positions : Front: L C R, Side: L R, LFE
Sampling rate : 48.0 KHz
Bit depth : 16 bits
Compression mode : Lossy
Stream size : 318 MiB (12%)
Language : English
Default : No
Forced : No
Text
ID : 4
Format : UTF-8
Codec ID : S_TEXT/UTF8
Codec ID/Info : UTF-8 Plain Text
Language : English
Default : No
Forced : No
Menu
00:00:00.000 : en:00:00:00.000
00:08:31.094 : en:00:08:31.094
00:15:02.193 : en:00:15:02.193
00:21:30.497 : en:00:21:30.497
00:28:33.337 : en:00:28:33.337
00:39:50.888 : en:00:39:50.888
00:47:24.425 : en:00:47:24.425
00:54:32.561 : en:00:54:32.561
01:00:21.326 : en:01:00:21.326
01:07:47.021 : en:01:07:47.021
01:11:48.804 : en:01:11:48.804
01:18:52.770 : en:01:18:52.770
01:23:16.283 : en:01:23:16.283
01:28:01.067 : en:01:28:01.067
01:35:52.455 : en:01:35:52.455
01:41:44.306 : en:01:41:44.306
01:45:24.026 : en:01:45:24.026
01:46:59.913 : en:01:46:59.913


Последний раз редактировалось: AZIK6249 (2013-11-20 22:20), всего редактировалось 1 раз

Создавать темы 20-Ноя-2013 21:32

[Профиль]  [ЛС] 

Rustamchik9390

Стаж: 5 лет 6 месяцев

Сообщений: 42

как качество?

Создавать темы 20-Ноя-2013 22:02

[Профиль]  [ЛС] 

Топик был перенесен из форума Фильмы за 2013 (новинки) в форум HD-AVC

Grock

Создавать темы 20-Ноя-2013 22:20

 

AZIK6249 ®

Стаж: 4 года 5 месяцев

Сообщений: 7

супер мне понравилось

Создавать темы 20-Ноя-2013 22:42

[Профиль]  [ЛС] 
Показать сообщения:    
Ответить на тему

Текущее время: 23-Ноя 00:54

Часовой пояс: UTC + 5



Вы не можете начинать темы
Вы не можете отвечать на сообщения
Вы не можете редактировать свои сообщения
Вы не можете удалять свои сообщения
Вы не можете голосовать в опросах
Вы не можете прикреплять файлы к сообщениям
Вы не можете скачивать файлы