Пустошь / The Barrens (Даррен Линн Боусман / Darren Lynn Bousman) [2011, США, ужасы, триллер, HDRip] MVO

Ответить на тему
 

Suxrob89 ®

Стаж: 7 лет 3 месяца

Сообщений: 933

Симпатии: 564

-Пустошь / The Barrens-«The terrifying legend of the Jersey Devil is alive.»- Страна: США, Канада
Жанр: ужасы, триллер
Год выпуска: 2011
Продолжительность: 01:33:56-Перевод: Профессиональный (многоголосый, закадровый)
Оригинальная аудиодорожка: нет
Субтитры: нет-Режиссер: Даррен Линн Боусман / Darren Lynn Bousman
В ролях: Стивен Мойер, Миа Киршнер, Элли МакДональд, Шон Эшмор, Питер ДаКуна, Дэвид Кили, Эрик Кнудсен, Шамир Андерсон, Макс Топплин, Майкл Коупмен, Афина Карканис, Дж. ЛаРоуз-Описание: Герой фильма взяв семью в поход и не предполагал, что простая вылазка в лес с палатками и рыбацкими принадлежностями выльется в ужасные последствия. Очень скоро он понимает, что его семью преследует знаменитый Дьявол из Джерси - монстр, по слухам обитающий в местечке Pine Barrens, что расположено на юге Нью Джерси.- -Сценарий: Даррен Линн Боусман / Darren Lynn Bousman
Продюсер: Ричард Саперштейн / Richard Saperstein, Брайан Уиттен / Brian Witten, Даррен Линн Боусман / Darren Lynn Bousman, Джон М. Экерт / John M. Eckert, Армен Агаеян / Armen Aghaeian
Оператор: Джозеф Уайт / Joseph White
Композитор: Бобби Джонстон / Bobby Johnston
Мировая премьера: 28 сентября 2012
Релиз на DVD: 23 мая 2013, «Новый Диск», «New Dream media»-Качество: HDRip
Контейнер: AVI
Видео: XviD, 720x400 , 23.976 fps, 1 767 Kbps
Аудио: AC-3, 48.0 KHz, 6 ch, 448 Kbps-

Знаете ли Вы, что...

  • Ранняя версия этого фильма была продолжительностью всего в 81 минуту.
  • Первоначально планировалось снять этот фильм за 20 дней. Но два дня были потеряны из-за проливных дождей, и вместо этого фильм сняли за 18 дней.
  • Дьявол из Джерси был построен за три недели.
  • Съемки проходили в трех различных лесах.
  • Первоначально Даррен Линн Боусман хотел снимать фильм в настоящей сосновой пустоши в Нью-Джерси.
  • Все дневные сцены в лагере были сняты за один день.
  • В ранней версии фильма было больше кадров с дьяволом из Джерси.
  • Большинство сцен было снято за один дубль.

Media Info

H:\The Barrens.2012.P.HDRip.1.46Gb.avi
General
Complete name : H:\The Barrens.2012.P.HDRip.1.46Gb.avi
Format : AVI
Format/Info : Audio Video Interleave
File size : 1.46 GiB
Duration : 1h 33mn
Overall bit rate : 2 224 Kbps
Writing application : VirtualDubMod 1.5.10.2 (build 2540/release)
Writing library : VirtualDubMod build 2540/release
Video #0
ID : 0
Format : MPEG-4 Visual
Format profile : Advanced [email protected]
Format settings, BVOP : 2
Format settings, QPel : No
Format settings, GMC : No warppoints
Format settings, Matrix : Default (MPEG)
Codec ID : XVID
Codec ID/Hint : XviD
Duration : 1h 33mn
Bit rate : 1 767 Kbps
Width : 720 pixels
Height : 400 pixels
Display aspect ratio : 16:9
Frame rate : 23.976 fps
Color space : YUV
Chroma subsampling : 4:2:0
Bit depth : 8 bits
Scan type : Progressive
Compression mode : Lossy
Bits/(Pixel*Frame) : 0.256
Stream size : 1.16 GiB (79%)
Writing library : XviD 1.2.1 (UTC 2008-12-04)
Audio #1
ID : 1
Format : AC-3
Format/Info : Audio Coding 3
Mode extension : CM (complete main)
Format settings, Endianness : Big
Codec ID : 2000
Duration : 1h 33mn
Bit rate mode : Constant
Bit rate : 448 Kbps
Channel(s) : 6 channels
Channel positions : Front: L C R, Side: L R, LFE
Sampling rate : 48.0 KHz
Bit depth : 16 bits
Compression mode : Lossy
Stream size : 301 MiB (20%)
Alignment : Split accross interleaves
Interleave, duration : 42 ms (1.00 video frame)
Interleave, preload duration : 500 ms

Скриншоты

Создавать темы 21-Ноя-2013 15:16

[Профиль]  [ЛС] 
Показать сообщения:    
Ответить на тему

Текущее время: 20-Ноя 08:54

Часовой пояс: UTC + 5



Вы не можете начинать темы
Вы не можете отвечать на сообщения
Вы не можете редактировать свои сообщения
Вы не можете удалять свои сообщения
Вы не можете голосовать в опросах
Вы не можете прикреплять файлы к сообщениям
Вы не можете скачивать файлы