Очень голодные игры / The Starving Games (Джейсон Фридберг, Аарон Зельцер) [2013г. США. комедия; HDRip]

Ответить на тему
 

Imperiya ®

Стаж: 6 лет 6 месяцев

Сообщений: 275

Симпатии: 4

Очень голодные игры / The Starving Games«Этот фильм сожжёт ваши калории дотла» --Год выпуска: 2013
Страна: США
Жанр: комедия
Продолжительность: 01:22:26
Перевод: Любительское (одноголосное) [Andi]--Режиссер: Джейсон Фридберг, Аарон Зельцер
В ролях: Майра Уолш, Брэнт Догерти, Александрия Деберри, Коди Кристиан, Ник Гомес, Дидрих Бадер, Лорен Боулз, Эрик Борк, Джозеф Авиль, Элис Форд--Описание: Храбрая девушка по имени Кантмисс Эвершот вызывается добровольцем для участия в «Играх за хавчик». Однако она даже предположить не могла, чем всё это закончится и кто будет сражаться вместе с ней.--Качество: HDRip
Формат: AVI
Видео кодек: XviD
Аудио кодек: AC3
Видео: Xvid 704x384 23.98fps 2039kbps [Video 0]
Аудио: Dolby AC3 48000Hz 6ch 448kbps [Audio 1]

Media Info

C:\uu\The.Starving.Games.L1.HDRiptas-ix.net.avi
General
Complete name : C:\uu\The.Starving.Games.L1.HDRiptas-ix.net.avi
Format : AVI
Format/Info : Audio Video Interleave
File size : 1.44 GiB
Duration : 1h 22mn
Overall bit rate : 2 497 Kbps
Writing application : VirtualDubMod 1.5.10.3 | www.virtualdub-fr.org || (build 2550/release)
Writing library : VirtualDubMod build 2550/release
Video #0
ID : 0
Format : MPEG-4 Visual
Format profile : Advanced [email protected]
Format settings, BVOP : 1
Format settings, QPel : No
Format settings, GMC : No warppoints
Format settings, Matrix : Custom
Codec ID : XVID
Codec ID/Hint : XviD
Duration : 1h 22mn
Bit rate : 2 040 Kbps
Width : 704 pixels
Height : 384 pixels
Display aspect ratio : 1.85:1
Frame rate : 23.976 fps
Color space : YUV
Chroma subsampling : 4:2:0
Bit depth : 8 bits
Scan type : Progressive
Compression mode : Lossy
Bits/(Pixel*Frame) : 0.315
Stream size : 1.17 GiB (82%)
Writing library : XviD 73
Audio #1
ID : 1
Format : AC-3
Format/Info : Audio Coding 3
Mode extension : CM (complete main)
Format settings, Endianness : Big
Codec ID : 2000
Duration : 1h 22mn
Bit rate mode : Constant
Bit rate : 448 Kbps
Channel(s) : 6 channels
Channel positions : Front: L C R, Side: L R, LFE
Sampling rate : 48.0 KHz
Bit depth : 16 bits
Compression mode : Lossy
Stream size : 264 MiB (18%)
Alignment : Split accross interleaves
Interleave, duration : 42 ms (1.00 video frame)
Interleave, preload duration : 500 ms

Скриншоты



Последний раз редактировалось: Imperiya (2013-11-22 00:59), всего редактировалось 4 раз(а)

Создавать темы 21-Ноя-2013 23:09

[Профиль]  [ЛС] 

Imperiya ®

Стаж: 6 лет 6 месяцев

Сообщений: 275

Симпатии: 4

админи я же первий открыл релиз


Последний раз редактировалось: Imperiya (2013-11-22 00:51), всего редактировалось 1 раз

Создавать темы 22-Ноя-2013 00:33

[Профиль]  [ЛС] 

Imperiya ®

Стаж: 6 лет 6 месяцев

Сообщений: 275

Симпатии: 4

вот вам доказателство

Скриншоты

Создавать темы 22-Ноя-2013 00:35

[Профиль]  [ЛС] 

victor0778

Стаж: 6 лет 8 месяцев

Сообщений: 1670

Симпатии: 142

админи я же первий открыл релиз
мало залить, нужно ещё и раздавать, а вы за 6 часов ни одного процента ни отдали
повтор
http://tas-ix.net/viewtopic.php?t=82167

Создавать темы 22-Ноя-2013 07:26

[Профиль]  [ЛС] 

Imperiya ®

Стаж: 6 лет 6 месяцев

Сообщений: 275

Симпатии: 4

victor0778, вы что я в полностю стал раздачу вот

Скриншоты

даже прошло 19;10 часов

Создавать темы 22-Ноя-2013 08:42

[Профиль]  [ЛС] 
Показать сообщения:    
Ответить на тему

Текущее время: 24-Окт 16:31

Часовой пояс: UTC + 5



Вы не можете начинать темы
Вы не можете отвечать на сообщения
Вы не можете редактировать свои сообщения
Вы не можете удалять свои сообщения
Вы не можете голосовать в опросах
Вы не можете прикреплять файлы к сообщениям
Вы не можете скачивать файлы