Очень голодные игры / The Starving Games (Джейсон Фридберг, Аарон Зельцер / Jason Friedberg, Aaron Seltzer) [2013, США, Комедия, HDRip] [лицензия]

Страницы :  1, 2  След.

Ответить на тему
 

Suxrob89 ®

Стаж: 7 лет 4 месяца

Сообщений: 933

Симпатии: 564

-Очень голодные игры / The Starving Games- Страна: США
Жанр: Комедия
Год выпуска: 2013
Продолжительность: 01:22:26
Перевод: Профессиональный (полное дублирование) [Лицензия]
Cубтитры: нет
Оригинальная аудиодорожка: нет-Режиссер: Джейсон Фридберг, Аарон Зельцер / Jason Friedberg, Aaron Seltzer-В ролях: Майра Уолш, Брэнт Догерти, Александрия Деберри, Коди Кристиан, Ник Гомес, Дидрих Бадер, Лорен Боулз, Эрик Борк, Джозеф Авиль, Элис Форд-Описание: Храбрая девушка по имени Кантмисс Эвершот вызывается добровольцем для участия в «Играх за хавчик». Однако она даже предположить не могла, чем всё это закончится и кто будет сражаться вместе с ней.- -Качество видео: HDRip
Формат видео: AVI
Видео: XviD, 704x384, 23.976 fps, 1 921 kbps
Аудио: AC3 Dolby Digital, 48 kHz, 6 ch, 448 kbps

MediaInfo

D:\Ochen.golognie.igry.2013.D.HDRip.1400MB.avi
General
Complete name : D:\Ochen.golognie.igry.2013.D.HDRip.1400MB.avi
Format : AVI
Format/Info : Audio Video Interleave
File size : 1.37 GiB
Duration : 1h 22mn
Overall bit rate : 2 378 Kbps
Writing application : VirtualDubMod 1.5.10.2 (build 2540/release)
Writing library : VirtualDubMod build 2540/release
Video #0
ID : 0
Format : MPEG-4 Visual
Format profile : Advanced [email protected]
Format settings, BVOP : 2
Format settings, QPel : No
Format settings, GMC : No warppoints
Format settings, Matrix : Custom
Codec ID : XVID
Codec ID/Hint : XviD
Duration : 1h 22mn
Bit rate : 1 921 Kbps
Width : 720 pixels
Height : 384 pixels
Display aspect ratio : 1.85:1
Frame rate : 23.976 fps
Color space : YUV
Chroma subsampling : 4:2:0
Bit depth : 8 bits
Scan type : Progressive
Compression mode : Lossy
Bits/(Pixel*Frame) : 0.290
Stream size : 1.10 GiB (81%)
Writing library : XviD 1.2.1 (UTC 2008-12-04)
Audio #1
ID : 1
Format : AC-3
Format/Info : Audio Coding 3
Mode extension : CM (complete main)
Format settings, Endianness : Big
Codec ID : 2000
Duration : 1h 22mn
Bit rate mode : Constant
Bit rate : 448 Kbps
Channel(s) : 6 channels
Channel positions : Front: L C R, Side: L R, LFE
Sampling rate : 48.0 KHz
Bit depth : 16 bits
Compression mode : Lossy
Stream size : 264 MiB (19%)
Alignment : Split accross interleaves
Interleave, duration : 42 ms (1.00 video frame)
Interleave, preload duration : 500 ms

Скриншот c названием фильма

Скриншоты



Последний раз редактировалось: Suxrob89 (2013-11-28 19:25), всего редактировалось 1 раз

Создавать темы 21-Ноя-2013 23:14

[Профиль]  [ЛС] 

sherzod1414

Стаж: 4 года 1 месяц

Сообщений: 107

Симпатии: 40

норм когда будет раздача

Создавать темы 21-Ноя-2013 23:27

[Профиль]  [ЛС] 

Kakcam

Стаж: 7 лет

Сообщений: 137

Симпатии: 7

а когда будет перевод нормальный?

Создавать темы 21-Ноя-2013 23:27

[Профиль]  [ЛС] 

farrux_b

Стаж: 5 лет 9 месяцев

Сообщений: 26

Симпатии: 5

рейтинг убил bu ca bz

Создавать темы 22-Ноя-2013 00:43

[Профиль]  [ЛС] 

fera96

Стаж: 5 лет 11 месяцев

Сообщений: 15

тут 2 аудиодорожки?

Создавать темы 22-Ноя-2013 00:55

[Профиль]  [ЛС] 

The Vault Boy

Стаж: 4 года 7 месяцев

Сообщений: 48

Симпатии: 1

чо за фигня?! Аватар? Гэндальф? Не хватает только капитана Кирка.... Пипеец кароче)

Создавать темы 22-Ноя-2013 16:10

[Профиль]  [ЛС] 

PupuseG

Стаж: 5 лет 2 месяца

Сообщений: 514

Симпатии: 64

Смотреть можно, или не стоит?

Создавать темы 22-Ноя-2013 17:08

[Профиль]  [ЛС] 

sem

Стаж: 7 лет 1 месяц

Сообщений: 123

Симпатии: 6

это точно оригинальный фильм или породия?

Создавать темы 23-Ноя-2013 09:13

[Профиль]  [ЛС] 

TimaK

Стаж: 6 лет 7 месяцев

Сообщений: 129

Симпатии: 23

Да это не тв3 а тв5 ё моё так издеваться над созданием фильма просто уродство. Плюнул я на этих Джейсон Фридберг, Аарон Зельцер! :tm:

Создавать темы 23-Ноя-2013 21:08

[Профиль]  [ЛС] 

SNIL

Стаж: 5 лет 11 месяцев

Сообщений: 2624

Симпатии: 341

это точно оригинальный фильм или породия?
это породия конешь!
вот оригинал http://tas-ix.net/viewtopic.php?t=52093

Создавать темы 23-Ноя-2013 21:19

[Профиль]  [ЛС] 

sem

Стаж: 7 лет 1 месяц

Сообщений: 123

Симпатии: 6

это точно оригинальный фильм или породия?
это породия конешь!
вот оригинал http://tas-ix.net/viewtopic.php?t=52093
спс тота я думаю что то тут не то))

Создавать темы 24-Ноя-2013 08:47

[Профиль]  [ЛС] 

Junkie

Стаж: 4 года 6 месяцев

Сообщений: 316

Симпатии: 21

редкостная шняга, впрочем как и 98% подобных пародий))

Создавать темы 24-Ноя-2013 17:44

[Профиль]  [ЛС] 

SNIL

Стаж: 5 лет 11 месяцев

Сообщений: 2624

Симпатии: 341

Наконец нашол время глянуть! Человеки) не убивайте на него время!

Создавать темы 24-Ноя-2013 22:15

[Профиль]  [ЛС] 

E|[email protected]|0

Стаж: 6 лет 2 месяца

Сообщений: 105

Симпатии: 4

Отстойнее него я не видел ничего последние два года!!! bu

Создавать темы 26-Ноя-2013 00:11

[Профиль]  [ЛС] 

Snooker

Стаж: 4 года

Сообщений: 18

Симпатии: 2

Этот шлак и 5и минут смотреть противно

Создавать темы 26-Ноя-2013 12:35

[Профиль]  [ЛС] 
Показать сообщения:    
Ответить на тему

Текущее время: 12-Дек 19:21

Часовой пояс: UTC + 5



Вы не можете начинать темы
Вы не можете отвечать на сообщения
Вы не можете редактировать свои сообщения
Вы не можете удалять свои сообщения
Вы не можете голосовать в опросах
Вы не можете прикреплять файлы к сообщениям
Вы не можете скачивать файлы