Мастер тай-цзи / Man of Tai Chi (Киану Ривз / Keanu Reeves) [2013, Китай, боевик, HDRip] MVO

Ответить на тему
 

Suxrob89 ®

Стаж: 7 лет

Сообщений: 933

Симпатии: 564

- -Мастер тай-цзи / Man of Tai Chi- Страна:
Жанр: боевик
Год выпуска: 2013
Продолжительность: 01:45:14-Перевод: Любительский (многоголосый закадровый) BaibaKo
Субтитры: нет-Режиссер: Киану Ривз / Keanu Reeves-В ролях: Киану Ривз, Тайгер Ху Чен, Ико Ювайс, Карен Мок, Саймон Ям, Сильвио Шимач, Цин Е, Джереми Меринас, Хелен Леклерк, Ю Сон Чжун, Стивен Дасс, Сэм Ли-Описание: Пекин. Амбициозный юноша Чэнь Линь-Ху по кличке «Тигр» подрабатывает скромным курьером, но после работы он превращается в молодую звезду боевых искусств, постепенно оттачивая свои навыки, следуя традициям Тайцзи Лин Кун. Обучившись размеренным и мирным движениям из Тайцзи, он приспособил их для бойцовских соревнований.
Донака Марк, скрываясь от гонконгской полиции, попадает в другой столичный мегаполис, где царит неразбериха и хаос, и открывает там подпольный бойцовский клуб, в котором реальные деньги можно заработать, побеждая противников в поединках без правил, транслируемых в прямом эфире богатым клиентам.
Подыскивая новую «звезду», Донака пытается приманить Тигра обещанием лёгкого заработка. Вхождение в этот мир выявляет самую тёмную сторону Чэнь Линь-Ху, но ему необходимы наличные. Его навыки помогают ему на ринге, но сможет ли он, сражаясь, сохранить в себе чистоту и добропорядочность?- -Сценарий: Майкл Дж. Куни / Michael G. Cooney
Продюсер: Лимор Сиван / Lemore Syvan, Ноа Вейнцвейг / Noah Weinzweig, Чжан Дасин / Zhang Daxing, Ман-Ю Ли / Man-Yiu Lee, Шэрон Миллер / Sharon Miller
Оператор: Эллиот Дэвис / Elliot Davis
Композитор: Квонг Уинг Чан / Kwong Wing Chan
Бюджет: $25 000 000
Сборы в мире: $4 280 000
Мировая премьера: 5 июля 2013-Качество: HDRip [Рип с BDRip 720p]
Контейнер: AVI
Видео: XviD, 720x304 (2.35:1), 1465 kbps, 23,976 fps, 0,279 bpp
Аудио: AC3 / 5.1 / 48 kHz / 384 kbps / 16 bit-

Media Info

General
Complete name : G:\Man.of.Tai.Chi.2013.P.HDRip.1400Mb.avi
Format : AVI
Format/Info : Audio Video Interleave
File size : 1.37 GiB
Duration : 1h 45mn
Overall bit rate : 1 859 Kbps
Writing application : VirtualDubMod 1.5.10.2 (build 2540/release)
Writing library : VirtualDubMod build 2540/release
Video
ID : 0
Format : MPEG-4 Visual
Format profile : Advanced [email protected]
Format settings, BVOP : 2
Format settings, QPel : No
Format settings, GMC : No warppoints
Format settings, Matrix : Custom
Codec ID : XVID
Codec ID/Hint : XviD
Duration : 1h 45mn
Bit rate : 1 466 Kbps
Width : 720 pixels
Height : 304 pixels
Display aspect ratio : 2.35:1
Frame rate : 23.976 fps
Color space : YUV
Chroma subsampling : 4:2:0
Bit depth : 8 bits
Scan type : Progressive
Compression mode : Lossy
Bits/(Pixel*Frame) : 0.279
Stream size : 1.08 GiB (79%)
Writing library : XviD 1.2.1 (UTC 2008-12-04)
Audio
ID : 1
Format : AC-3
Format/Info : Audio Coding 3
Mode extension : CM (complete main)
Codec ID : 2000
Duration : 1h 45mn
Bit rate mode : Constant
Bit rate : 384 Kbps
Channel(s) : 6 channels
Channel positions : Front: L C R, Side: L R, LFE
Sampling rate : 48.0 KHz
Bit depth : 16 bits
Compression mode : Lossy
Stream size : 289 MiB (21%)
Alignment : Split accross interleaves
Interleave, duration : 42 ms (1.00 video frame)
Interleave, preload duration : 500 ms

Скриншот с названием фильма

Скриншоты

Создавать темы 22-Ноя-2013 07:13

[Профиль]  [ЛС] 

ELEVE11

Стаж: 4 года 7 месяцев

Сообщений: 2

Ребят, кто подскажет!? Что за музыка играет на корабле, во временном промежутке с 46:50 до 47:25?

Создавать темы 17-Дек-2013 23:10

[Профиль]  [ЛС] 

TimaK

Стаж: 6 лет 3 месяца

Сообщений: 129

Симпатии: 23

Ребят, кто подскажет!? Что за музыка играет на корабле, во временном промежутке с 46:50 до 47:25?
Гугл в помощь !

Создавать темы 18-Дек-2013 01:37

[Профиль]  [ЛС] 

toirchik

Стаж: 4 года 6 месяцев

Сообщений: 33

Симпатии: 2

я не могу до конца скачать! качаю уже больше недели!!! в чем проблема?

Создавать темы 18-Дек-2013 21:52

[Профиль]  [ЛС] 

sem

Стаж: 6 лет 10 месяцев

Сообщений: 123

Симпатии: 6

как фильм? стоит качать или наигрыш как в индийском кино?)))

Создавать темы 19-Дек-2013 10:33

[Профиль]  [ЛС] 

trofim1002

Стаж: 4 года 3 месяца

Сообщений: 3

а когда лицензия выйдет или перевод нормальный?

Создавать темы 19-Дек-2013 11:23

[Профиль]  [ЛС] 

risa

Стаж: 7 лет 1 месяц

Сообщений: 7

фильм нормальный!

Создавать темы 25-Дек-2013 16:13

[Профиль]  [ЛС] 
Показать сообщения:    
Ответить на тему

Текущее время: 24-Авг 04:14

Часовой пояс: UTC + 5



Вы не можете начинать темы
Вы не можете отвечать на сообщения
Вы не можете редактировать свои сообщения
Вы не можете удалять свои сообщения
Вы не можете голосовать в опросах
Вы не можете прикреплять файлы к сообщениям
Вы не можете скачивать файлы