Паранойя / Paranoia (Роберт Лукетич / Robert Luketic) [2013 г., триллер, драма, HDRip][Лицензия]

Ответить на тему
 

Barca Fan ®

Стаж: 5 лет 9 месяцев

Сообщений: 47

Симпатии: 6

Паранойя / Paranoia
«В войне двух королей, даже пешка может победить»
- Название: Паранойя
Оригинальное название: Paranoia
Год выпуска: 2013
Страна: США, Франция
Жанр: триллер, драма
Продолжительность: 01:46:06
Перевод: Дублированный [Лицензия]
Оригинальная дорожка: Нет
Субтитры: Нет-Бюджет: $35 000 000
Оператор: Дэвид Тэттерсолл
Сценаристы: Джейсон Дин Холл, Бэрри Леви, Джозеф Финдер
Композитор: Джанки Экс-Эл
Монтаж: Дэни Купер
Художник: Дэвид Брисбин, Мисси Стюарт, Скотт Андерсон-Режиссер: Роберт Лукетич / Robert Luketic-В ролях: Лиам Хемсворт, Гари Олдман, Эмбер Хёрд, Харрисон Форд, Лукас Тилл, Эмбет Дэвидц, Джулиан МакМэхон, Джош Холлоуэй, Ричард Дрейфусс, Анджела Сарафян.-Описание: Адам Кэссиди — типичный «белый воротничок», пытающийся преуспеть на должности молодого специалиста в крупной телекоммуникационной корпорации. После одной весьма дорогостоящей ошибки он сталкивается лицом к лицу с безжалостным президентом компании, который соглашается не увольнять провинившегося при одном условии: Адам должен шпионить за старым наставником своего босса…- -Качество: HDRip
Формат: AVI
Видео кодек: XviD
Аудио кодек: AC3
Видео: 720x304, 1752 kb/s, 23.976 fps
Аудио: 384 kb/s, 6 ch, 48 KHz-

MediaInfo

General
Complete name : F:\Paranoya.2013.D.HDRip.1400MB.Barca Fan.avi
Format : AVI
Format/Info : Audio Video Interleave
File size : 1.46 GiB
Duration : 1h 46mn
Overall bit rate : 1 965 Kbps
Writing application : VirtualDubMod 1.5.10.2 (build 2540/release)
Writing library : VirtualDubMod build 2540/release
Video
ID : 0
Format : MPEG-4 Visual
Format profile : Advanced [email protected]
Format settings, BVOP : 2
Format settings, QPel : No
Format settings, GMC : No warppoints
Format settings, Matrix : Custom
Codec ID : XVID
Codec ID/Hint : XviD
Duration : 1h 46mn
Bit rate : 1 572 Kbps
Width : 720 pixels
Height : 304 pixels
Display aspect ratio : 2.35:1
Frame rate : 23.976 fps
Color space : YUV
Chroma subsampling : 4:2:0
Bit depth : 8 bits
Scan type : Progressive
Compression mode : Lossy
Bits/(Pixel*Frame) : 0.300
Stream size : 1.16 GiB (80%)
Writing library : XviD 1.2.1 (UTC 2008-12-04)
Audio
ID : 1
Format : AC-3
Format/Info : Audio Coding 3
Mode extension : CM (complete main)
Format settings, Endianness : Big
Codec ID : 2000
Duration : 1h 46mn
Bit rate mode : Constant
Bit rate : 384 Kbps
Channel(s) : 6 channels
Channel positions : Front: L C R, Side: L R, LFE
Sampling rate : 48.0 KHz
Bit depth : 16 bits
Compression mode : Lossy
Stream size : 291 MiB (20%)
Alignment : Split accross interleaves
Interleave, duration : 42 ms (1.00 video frame)
Interleave, preload duration : 500 ms
-

Скриншоты





-Зрителям, старше 12 летНе забываем говорить спасибо!!!


Последний раз редактировалось: Barca Fan (2013-11-23 16:20), всего редактировалось 4 раз(а)

Создавать темы 22-Ноя-2013 18:44

[Профиль]  [ЛС] 

Barca Fan ®

Стаж: 5 лет 9 месяцев

Сообщений: 47

Симпатии: 6

Рейтинг IMDB не радует но фильм отличный!

Создавать темы 22-Ноя-2013 19:05

[Профиль]  [ЛС] 

Hasanbek

Стаж: 6 лет 5 месяцев

Сообщений: 161

Симпатии: 6

Зрителям, старше 13 лет
Не забываем говорить спасибо!!!
Убил просто cb ag

Создавать темы 22-Ноя-2013 19:29

[Профиль]  [ЛС] 

axeman

Стаж: 4 года 11 месяцев

Сообщений: 380

Симпатии: 50

Зрителям, старше 13 лет
Не забываем говорить спасибо!!!
Убил просто cb ag
мдааа.... за за живо закопал

Создавать темы 22-Ноя-2013 19:57

[Профиль]  [ЛС] 

griNder

Стаж: 3 года 11 месяцев

Сообщений: 39

Симпатии: 1

старше 14 сразу надо было )

Создавать темы 22-Ноя-2013 20:47

[Профиль]  [ЛС] 

Suzuki

Стаж: 5 лет 6 месяцев

Сообщений: 9

О Ф И Г Е Н Н Ы Й Ф И Л Ь М !!!!!! by

Создавать темы 26-Ноя-2013 02:39

[Профиль]  [ЛС] 

Suzuki

Стаж: 5 лет 6 месяцев

Сообщений: 9

cb
Рейтинг IMDB не радует но фильм отличный!

Создавать темы 26-Ноя-2013 02:40

[Профиль]  [ЛС] 

vardas

Стаж: 5 лет

Сообщений: 17

Спасибо !

Создавать темы 28-Янв-2015 21:54

[Профиль]  [ЛС] 
Показать сообщения:    
Ответить на тему

Текущее время: 24-Окт 14:44

Часовой пояс: UTC + 5



Вы не можете начинать темы
Вы не можете отвечать на сообщения
Вы не можете редактировать свои сообщения
Вы не можете удалять свои сообщения
Вы не можете голосовать в опросах
Вы не можете прикреплять файлы к сообщениям
Вы не можете скачивать файлы