Горько! (Жора Крыжовников) [2013, Комедия, Приключения, DVDRip][Лицензия]

Страницы :  1, 2, 3  След.

Ответить на тему
 

Suxrob89 ®

Стаж: 7 лет

Сообщений: 933

Симпатии: 564

-Горько!- Год выпуска: 2013
Производство: Россия / Базелевс Продакшн, Lunapark
Жанр: Комедия, Приключения
Перевод: Не требуется [Лицензия]
Язык: Русский
Субтитры: Отсутствуют
Продолжительность: 01:35:56-Дата мировой премьеры: 25 октября 2013
Дата российской премьеры: 24 октября 2013, «Bazelevs Distribution»
Дата выхода DVD релиза: 5 декабря 2013, «Флагман-Трейд»-Режиссер: Жора Крыжовников
Продюсер: Илья Бурец, Дмитрий Нелидов, Сергей Светлаков
Актеры: Сергей Светлаков, Ян Цапник, Юлия Александрова, Егор Корешков, Сергей Лавыгин, Данила Якушев, Валентина Мазунина, Александр Паль, Юлия Стадник, Елена Валюшкина-Описание фильма: Прогрессивные и талантливые Наташа и Рома мечтают о европейской свадьбе на берегу моря… но у Наташиного отчима заготовлен другой сценарий. Грубый чиновник городской администрации рассматривает торжество как трамплин для собственной карьеры и стремится устроить все «как надо». Молодых ждет незабываемый вечер в ресторане «Золотой» с полным набором занудных обрядов. Не в силах бороться, ребята решают провести свадьбу своей мечты в секрете от консервативных родственников. Но по нелепой случайности оба торжества сливаются воедино.--Качество: DVDRip
Формат: AVI
Видео кодек: Xvid
Аудио кодек: AC3
Видео: 720x400, 1 580 Kbps, 29.970 fps
Аудио: 448 Kbps, 6 ch, 48.0 KHz

Media info

H:\Gorko.2013.O.DVDRip.1400MB.avi
General
Complete name : H:\Gorko.2013.O.DVDRip.1400MB.avi
Format : AVI
Format/Info : Audio Video Interleave
File size : 1.37 GiB
Duration : 1h 35mn
Overall bit rate : 2 040 Kbps
Writing application : VirtualDubMod 1.5.10.2 (build 2540/release)
Writing library : VirtualDubMod build 2540/release
Video #0
ID : 0
Format : MPEG-4 Visual
Format profile : Advanced [email protected]
Format settings, BVOP : 2
Format settings, QPel : No
Format settings, GMC : No warppoints
Format settings, Matrix : Custom
Codec ID : XVID
Codec ID/Hint : XviD
Duration : 1h 35mn
Bit rate : 1 580 Kbps
Width : 720 pixels
Height : 400 pixels
Display aspect ratio : 16:9
Frame rate : 29.970 fps
Color space : YUV
Chroma subsampling : 4:2:0
Bit depth : 8 bits
Scan type : Progressive
Compression mode : Lossy
Bits/(Pixel*Frame) : 0.183
Stream size : 1.06 GiB (77%)
Writing library : XviD 1.2.1 (UTC 2008-12-04)
Audio #1
ID : 1
Format : AC-3
Format/Info : Audio Coding 3
Mode extension : CM (complete main)
Format settings, Endianness : Big
Codec ID : 2000
Duration : 1h 35mn
Bit rate mode : Constant
Bit rate : 448 Kbps
Channel(s) : 6 channels
Channel positions : Front: L C R, Side: L R, LFE
Sampling rate : 48.0 KHz
Bit depth : 16 bits
Compression mode : Lossy
Stream size : 307 MiB (22%)
Alignment : Split accross interleaves
Interleave, duration : 33 ms (1.00 video frame)
Interleave, preload duration : 500 ms

Скриншоты



Последний раз редактировалось: Suxrob89 (2013-11-24 16:03), всего редактировалось 1 раз

Создавать темы 24-Ноя-2013 13:57

[Профиль]  [ЛС] 

FissleR

Стаж: 6 лет 2 месяца

Сообщений: 94

ждем скорости! ждал фильм!

Создавать темы 24-Ноя-2013 14:21

[Профиль]  [ЛС] 

Bobur4ik

Стаж: 5 лет 7 месяцев

Сообщений: 57

ооо спасибо огромное Сухроб... я так ждал этот фильм ))

Создавать темы 24-Ноя-2013 14:38

[Профиль]  [ЛС] 

vasid70

Стаж: 4 года 3 месяца

Сообщений: 16

Горько! (Жора Крыжовников) (2013, Комедия, Приключения, DVDRip)
Помогу с раздачей!!!

Создавать темы 24-Ноя-2013 14:49

[Профиль]  [ЛС] 

rusya1990

Стаж: 4 года 9 месяцев

Сообщений: 4

Симпатии: 2

Даже не знаю что хуже: "самый лучший фильм" или этот мусор

Создавать темы 26-Ноя-2013 02:10

[Профиль]  [ЛС] 

Snooker

Стаж: 3 года 8 месяцев

Сообщений: 18

Симпатии: 2

Так ждал,а оказался полнейший шлак

Создавать темы 26-Ноя-2013 12:31

[Профиль]  [ЛС] 

pashu_uz

Стаж: 4 года 3 месяца

Сообщений: 126

Симпатии: 25

Мура полная, а не фильм

_________________
Подпись отключена за нарушение правил форума

Создавать темы 26-Ноя-2013 17:59

[Профиль]  [ЛС] 

denis_00792

Стаж: 6 лет 4 месяца

Сообщений: 7

фильм просто ужас

Создавать темы 26-Ноя-2013 23:07

[Профиль]  [ЛС] 

RichmanVIP

Стаж: 4 года 5 месяцев

Сообщений: 97

Симпатии: 4

единственный смешной момент был когда дружки жениха в сортире с мобилы Светлакова звонили всем))) остальное уг :tm:
судя по количеству пиров еще много желающих скачать, доведу отдачу до 100 ГБайт, потом удалю

Создавать темы 26-Ноя-2013 23:19

[Профиль]  [ЛС] 

SeabiscuiT

Стаж: 4 года 5 месяцев

Сообщений: 56

Симпатии: 4

звук отстой...идея дрянь...не смотрю современные русские фильмы...зря этот качал

Создавать темы 28-Ноя-2013 08:03

[Профиль]  [ЛС] 

player546

Стаж: 4 года

Сообщений: 97

Симпатии: 12

На мой взгляд, не все так ужасно. Средненький фильм.

Создавать темы 28-Ноя-2013 09:17

[Профиль]  [ЛС] 

vasid70

Стаж: 4 года 3 месяца

Сообщений: 16

Об этом фильме хочется сказать следующее что это фильм о России и о русской свадьбе. Дорогие друзья, не говорите мне, что вы не узнали себя, что вы не такие.«Горько» — отличная комедия , которую стоит посмотреть всем . Такой смешной комедии вы давно не видели, я вам гарантирую.
Во мне это кино оставило теплые и трогательные чувства.Я подумал, что это возможность посмотреть на себя со стороны.Так что давайте меняться вместе, чтобы потом нам не было «Горько!»

Создавать темы 28-Ноя-2013 22:08

[Профиль]  [ЛС] 

tas ix

Стаж: 5 лет 6 месяцев

Сообщений: 105

Симпатии: 24

Об этом фильме хочется сказать следующее что это фильм о России и о русской свадьбе. Дорогие друзья, не говорите мне, что вы не узнали себя, что вы не такие.«Горько» — отличная комедия , которую стоит посмотреть всем . Такой смешной комедии вы давно не видели, я вам гарантирую.
Во мне это кино оставило теплые и трогательные чувства.Я подумал, что это возможность посмотреть на себя со стороны.Так что давайте меняться вместе, чтобы потом нам не было «Горько!»
Полностью согласен. После просмотра самому захотелось на свадьбу - на ту свадьбу на которой мы все отдыхали ещё в детстве и которая по сути не изменилась до сих пор

Создавать темы 29-Ноя-2013 19:14

[Профиль]  [ЛС] 

Astrolog

Стаж: 5 лет 2 месяца

Сообщений: 213

Симпатии: 27

... «Горько!»
Полностью согласен...
И, кстати, ДА!!!
P.S. Нахлынули былые предсвадебные/свадебные переживания, за что весьма признателен создателям этого фильма.

Создавать темы 29-Ноя-2013 23:05

[Профиль]  [ЛС] 

Wolfling

Стаж: 4 года 6 месяцев

Сообщений: 48

Симпатии: 3

Позитивный фильм)

Создавать темы 04-Дек-2013 19:14

[Профиль]  [ЛС] 
Показать сообщения:    
Ответить на тему

Текущее время: 19-Авг 10:40

Часовой пояс: UTC + 5



Вы не можете начинать темы
Вы не можете отвечать на сообщения
Вы не можете редактировать свои сообщения
Вы не можете удалять свои сообщения
Вы не можете голосовать в опросах
Вы не можете прикреплять файлы к сообщениям
Вы не можете скачивать файлы