Гадкий Я 2: Мини-фильмы. Миньоны / Despicable Me 2: Mini-Movies. Minions (Пьер Коффен, Крис Рено / Pierre Coffi, Chris Renaud) [2013 г., Комедия, BDRip]

Ответить на тему
 

mashhur ®

Стаж: 4 года 9 месяцев

Сообщений: 13

Симпатии: 11

Гадкий Я 2: Мини-фильмы. Миньоны / Despicable Me 2: Mini-Movies. Minions
Год выпуска: 2013
Страна: США
Жанр: Комедия
Продолжительность: 3 x ~ 00:04:00
Перевод: Субтитры
Режиссер: Пьер Коффен, Крис Рено / Pierre Coffi, Chris Renaud
--Описание: Жёлтые коротышки, служат армией и помощниками для Грю. Хотя и понимают человеческую речь, говорить по-человечески не умеют, но могут произносить отдельные слова, но чаще они общаются на своём языке между собой. Глуповатые, но очень полезные. Интересно, что у некоторых миньонов только один глаз. Замечательное дополнение к известному мультфильму "Гадкия я 2"--Качество: BDRip
Формат: MKV
Аудио кодек: AC3

Паника в почтовом отделении / Panic in the Mailroom

Продолжительность: 00:04:14
Год выпуска: 2013
Перевод : Не требуется
Формат: MKV
Видео: V_MPEG4/ISO/AVC, 1280x692, 23.976 fps, 3 700 Kbps.
Аудио: 48 kHz, AC3, ~384 kbps, 6 channels
Субтитры: нет

Скрины

MediaInfo

General
Unique ID : 206850461740984802564521777190291103111 (0x9B9DF327E8F86CA38F23B9A200C3DD87)
Complete name : Миньоны\Panic in the Mailroom.mkv
Format : Matroska
Format version : Version 4 / Version 2
File size : 124 MiB
Duration : 4mn 14s
Overall bit rate : 4 083 Kbps
Movie name : optik.1557
Encoded date : UTC 2010-02-22 21:41:31
Writing application : mkvmerge v5.9.0 ('On The Loose') built on Dec 9 2012 15:37:01
Writing library : libebml v1.3.0 + libmatroska v1.4.0
Video
ID : 1
Format : AVC
Format/Info : Advanced Video Codec
Format profile : [email protected]
Format settings, CABAC : Yes
Format settings, ReFrames : 9 frames
Codec ID : V_MPEG4/ISO/AVC
Duration : 4mn 14s
Bit rate : 3 700 Kbps
Width : 1 280 pixels
Height : 692 pixels
Display aspect ratio : 1.85:1
Frame rate mode : Constant
Frame rate : 23.976 fps
Color space : YUV
Chroma subsampling : 4:2:0
Bit depth : 8 bits
Scan type : Progressive
Bits/(Pixel*Frame) : 0.174
Stream size : 110 MiB (89%)
Writing library : x264 core 133 r2334 a3ac64b
Encoding settings : cabac=1 / ref=9 / deblock=1:-2:1 / analyse=0x3:0x133 / me=umh / subme=10 / psy=1 / psy_rd=1.05:0.00 / mixed_ref=1 / me_range=48 / chroma_me=1 / trellis=2 / 8x8dct=1 / cqm=0 / deadzone=21,11 / fast_pskip=0 / chroma_qp_offset=-2 / threads=6 / lookahead_threads=1 / sliced_threads=0 / nr=0 / decimate=1 / interlaced=0 / bluray_compat=0 / constrained_intra=0 / bframes=12 / b_pyramid=2 / b_adapt=2 / b_bias=0 / direct=3 / weightb=1 / open_gop=0 / weightp=2 / keyint=250 / keyint_min=23 / scenecut=40 / intra_refresh=0 / rc=2pass / mbtree=0 / bitrate=3700 / ratetol=1.0 / qcomp=0.60 / qpmin=0 / qpmax=69 / qpstep=4 / cplxblur=20.0 / qblur=0.5 / ip_ratio=1.40 / pb_ratio=1.30 / aq=2:0.60
Language : English
Default : Yes
Forced : No
Audio
ID : 2
Format : AC-3
Format/Info : Audio Coding 3
Mode extension : CM (complete main)
Format settings, Endianness : Big
Codec ID : A_AC3
Duration : 4mn 14s
Bit rate mode : Constant
Bit rate : 384 Kbps
Channel count : 6 channels
Channel positions : Front: L C R, Side: L R, LFE
Sampling rate : 48.0 KHz
Bit depth : 16 bits
Compression mode : Lossy
Stream size : 11.6 MiB (9%)
Language : English
Default : Yes
Forced : No
-

Щенок / Puppy

Продолжительность: 00:04:33
Год выпуска: 2013
Перевод : Не требуется
Формат: MKV
Видео: V_MPEG4/ISO/AVC, 1280x692, 23.976 fps, 3 700 Kbps.
Аудио: 48 kHz, AC3, ~384 kbps, 6 channels
Субтитры: нет

Скрины

MediaInfo

General
Unique ID : 200913602582243608608152228990094400888 (0x97268D6677C7D4BB9BBCF01FCB97DD78)
Complete name : Миньоны\Puppy.mkv
Format : Matroska
Format version : Version 4 / Version 2
File size : 133 MiB
Duration : 4mn 33s
Overall bit rate : 4 065 Kbps
Movie name : optik.1557
Encoded date : UTC 2010-02-22 21:41:31
Writing application : mkvmerge v5.9.0 ('On The Loose') built on Dec 9 2012 15:37:01
Writing library : libebml v1.3.0 + libmatroska v1.4.0
Video
ID : 1
Format : AVC
Format/Info : Advanced Video Codec
Format profile : [email protected]
Format settings, CABAC : Yes
Format settings, ReFrames : 9 frames
Codec ID : V_MPEG4/ISO/AVC
Duration : 4mn 33s
Bit rate : 3 700 Kbps
Width : 1 280 pixels
Height : 692 pixels
Display aspect ratio : 1.85:1
Frame rate mode : Constant
Frame rate : 23.976 fps
Color space : YUV
Chroma subsampling : 4:2:0
Bit depth : 8 bits
Scan type : Progressive
Bits/(Pixel*Frame) : 0.174
Stream size : 118 MiB (89%)
Writing library : x264 core 133 r2334 a3ac64b
Encoding settings : cabac=1 / ref=9 / deblock=1:-2:1 / analyse=0x3:0x133 / me=umh / subme=10 / psy=1 / psy_rd=1.05:0.00 / mixed_ref=1 / me_range=48 / chroma_me=1 / trellis=2 / 8x8dct=1 / cqm=0 / deadzone=21,11 / fast_pskip=0 / chroma_qp_offset=-2 / threads=6 / lookahead_threads=1 / sliced_threads=0 / nr=0 / decimate=1 / interlaced=0 / bluray_compat=0 / constrained_intra=0 / bframes=12 / b_pyramid=2 / b_adapt=2 / b_bias=0 / direct=3 / weightb=1 / open_gop=0 / weightp=2 / keyint=250 / keyint_min=23 / scenecut=40 / intra_refresh=0 / rc=2pass / mbtree=0 / bitrate=3700 / ratetol=1.0 / qcomp=0.60 / qpmin=0 / qpmax=69 / qpstep=4 / cplxblur=20.0 / qblur=0.5 / ip_ratio=1.40 / pb_ratio=1.30 / aq=2:0.60
Language : English
Default : Yes
Forced : No
Audio
ID : 2
Format : AC-3
Format/Info : Audio Coding 3
Mode extension : CM (complete main)
Format settings, Endianness : Big
Codec ID : A_AC3
Duration : 4mn 33s
Bit rate mode : Constant
Bit rate : 384 Kbps
Channel count : 6 channels
Channel positions : Front: L C R, Side: L R, LFE
Sampling rate : 48.0 KHz
Bit depth : 16 bits
Compression mode : Lossy
Stream size : 12.5 MiB (9%)
Language : English
Default : Yes
Forced : No
-

Страховочные колеса / Training Wheels

Продолжительность: 00:04:12
Год выпуска: 2013
Перевод : Не требуется
Формат: MKV
Видео: V_MPEG4/ISO/AVC, 1280x692, 23.976 fps, 3 700 Kbps.
Аудио: 48 kHz, AC3, ~384 kbps, 6 channels
Субтитры: нет

Скрины

MediaInfo

General
Unique ID : 200913602582243608608152228990094400888 (0x97268D6677C7D4BB9BBCF01FCB97DD78)
Complete name : Миньоны\Puppy.mkv
Format : Matroska
Format version : Version 4 / Version 2
File size : 133 MiB
Duration : 4mn 33s
Overall bit rate : 4 065 Kbps
Movie name : optik.1557
Encoded date : UTC 2010-02-22 21:41:31
Writing application : mkvmerge v5.9.0 ('On The Loose') built on Dec 9 2012 15:37:01
Writing library : libebml v1.3.0 + libmatroska v1.4.0
Video
ID : 1
Format : AVC
Format/Info : Advanced Video Codec
Format profile : [email protected]
Format settings, CABAC : Yes
Format settings, ReFrames : 9 frames
Codec ID : V_MPEG4/ISO/AVC
Duration : 4mn 33s
Bit rate : 3 700 Kbps
Width : 1 280 pixels
Height : 692 pixels
Display aspect ratio : 1.85:1
Frame rate mode : Constant
Frame rate : 23.976 fps
Color space : YUV
Chroma subsampling : 4:2:0
Bit depth : 8 bits
Scan type : Progressive
Bits/(Pixel*Frame) : 0.174
Stream size : 118 MiB (89%)
Writing library : x264 core 133 r2334 a3ac64b
Encoding settings : cabac=1 / ref=9 / deblock=1:-2:1 / analyse=0x3:0x133 / me=umh / subme=10 / psy=1 / psy_rd=1.05:0.00 / mixed_ref=1 / me_range=48 / chroma_me=1 / trellis=2 / 8x8dct=1 / cqm=0 / deadzone=21,11 / fast_pskip=0 / chroma_qp_offset=-2 / threads=6 / lookahead_threads=1 / sliced_threads=0 / nr=0 / decimate=1 / interlaced=0 / bluray_compat=0 / constrained_intra=0 / bframes=12 / b_pyramid=2 / b_adapt=2 / b_bias=0 / direct=3 / weightb=1 / open_gop=0 / weightp=2 / keyint=250 / keyint_min=23 / scenecut=40 / intra_refresh=0 / rc=2pass / mbtree=0 / bitrate=3700 / ratetol=1.0 / qcomp=0.60 / qpmin=0 / qpmax=69 / qpstep=4 / cplxblur=20.0 / qblur=0.5 / ip_ratio=1.40 / pb_ratio=1.30 / aq=2:0.60
Language : English
Default : Yes
Forced : No
Audio
ID : 2
Format : AC-3
Format/Info : Audio Coding 3
Mode extension : CM (complete main)
Format settings, Endianness : Big
Codec ID : A_AC3
Duration : 4mn 33s
Bit rate mode : Constant
Bit rate : 384 Kbps
Channel count : 6 channels
Channel positions : Front: L C R, Side: L R, LFE
Sampling rate : 48.0 KHz
Bit depth : 16 bits
Compression mode : Lossy
Stream size : 12.5 MiB (9%)
Language : English
Default : Yes
Forced : No

Создавать темы 24-Ноя-2013 18:32

[Профиль]  [ЛС] 

Jokero

Стаж: 6 лет 4 месяца

Сообщений: 176

Симпатии: 4

когда другие серии?

Создавать темы 24-Ноя-2013 19:08

[Профиль]  [ЛС] 

Millenium

Стаж: 6 лет 3 месяца

Сообщений: 159

Симпатии: 3

А сколько их вообще?

Создавать темы 24-Ноя-2013 19:18

[Профиль]  [ЛС] 

akmalforever

Стаж: 5 лет 7 месяцев

Сообщений: 70

Симпатии: 4

классные короткометражки, особенно puppy, а новые серии будет, спасибо заранее

Создавать темы 14-Дек-2013 15:30

[Профиль]  [ЛС] 

ikrom_1503

Стаж: 4 года 5 месяцев

Сообщений: 1

akmalforever,
не знаю будет или нет но согласен классные мультики

Создавать темы 08-Янв-2014 11:04

[Профиль]  [ЛС] 

WarHzD

Стаж: 3 года 8 месяцев

Сообщений: 8

Очень КЛАСС...! ay
Спасибо mashhur
еще есть ?

Создавать темы 08-Янв-2014 19:48

[Профиль]  [ЛС] 

mashhur ®

Стаж: 4 года 9 месяцев

Сообщений: 13

Симпатии: 11

WarHzD, пока нет в продаже

Создавать темы 12-Янв-2014 22:42

[Профиль]  [ЛС] 

uzdevboy

Стаж: 4 года 10 месяцев

Сообщений: 21

WarHzD, mashhur, akmalforever, Millenium, Jokero, dayte skorosti, please

Создавать темы 09-Фев-2014 21:04

[Профиль]  [ЛС] 

DMITRYI

Стаж: 4 года 5 месяцев

Сообщений: 5

СПАСИБО!

Создавать темы 09-Апр-2014 13:18

[Профиль]  [ЛС] 
Показать сообщения:    
Ответить на тему

Текущее время: 19-Авг 03:11

Часовой пояс: UTC + 5



Вы не можете начинать темы
Вы не можете отвечать на сообщения
Вы не можете редактировать свои сообщения
Вы не можете удалять свои сообщения
Вы не можете голосовать в опросах
Вы не можете прикреплять файлы к сообщениям
Вы не можете скачивать файлы