Считанные часы / Hours (Эрик Хайссерер / Eric Heisserer) [2013, США, триллер, HDRip] DVO

Страницы :  1, 2  След.

Ответить на тему
 

Suxrob89 ®

Стаж: 7 лет 3 месяца

Сообщений: 933

Симпатии: 564

-Считанные часы / Hours- Страна: США
Жанр: триллер
Год выпуска: 2013
Продолжительность: 01:36:56
Перевод: Любительский (двухголосый закадровый) | DeadSno & den904
Cубтитры: нет-Режиссер: Эрик Хайссерер / Eric Heisserer-В ролях: Пол Уокер, Дженезис Родригез, Ник Гомес,Мэтт Кук, Тони Бентли,Джудд Лорманд, Мишель Торрес, Керри Кехилл, Ренелл Гиббс-Описание: Новый Орлеан. Август 2005-го. Смертоносная «Катрина» сметает все на своем пути. Отец изо всех сил пытается спасти свою дочь. Он понимает, что справиться со стихией, остановить беспощадный ураган не в его силах. На спасение дочери остаются считаные часы…- -Качество видео: HDRip
Формат видео: AVI
Видео: 720x304 (2,35:1), 23.976 fps, XviD build 63 ~1573 kbps avg, 0.30 bit/pixel
Аудио: 48 kHz, AC3 Dolby Digital, 3/2 (L,C,R,l,r) + LFE ch, ~448.00 kbps avg

MediaInfo

H:\Chitannye.chasy.2013.HDRip.avi
General
Complete name : H:\Chitannye.chasy.2013.HDRip.avi
Format : AVI
Format/Info : Audio Video Interleave
File size : 1.38 GiB
Duration : 1h 36mn
Overall bit rate : 2 030 Kbps
Writing application : VirtualDubMod 1.5.10.3 | www.virtualdub-fr.org || (build 2550/release)
Writing library : VirtualDubMod build 2550/release
Video #0
ID : 0
Format : MPEG-4 Visual
Format profile : Advanced [email protected]
Format settings, BVOP : 2
Format settings, QPel : No
Format settings, GMC : No warppoints
Format settings, Matrix : Default (H.263)
Muxing mode : Packed bitstream
Codec ID : XVID
Codec ID/Hint : XviD
Duration : 1h 36mn
Bit rate : 1 573 Kbps
Width : 720 pixels
Height : 304 pixels
Display aspect ratio : 2.35:1
Frame rate : 23.976 fps
Color space : YUV
Chroma subsampling : 4:2:0
Bit depth : 8 bits
Scan type : Progressive
Compression mode : Lossy
Bits/(Pixel*Frame) : 0.300
Stream size : 1.07 GiB (77%)
Writing library : XviD 64
Audio #1
ID : 1
Format : AC-3
Format/Info : Audio Coding 3
Mode extension : CM (complete main)
Format settings, Endianness : Big
Codec ID : 2000
Duration : 1h 36mn
Bit rate mode : Constant
Bit rate : 448 Kbps
Channel(s) : 6 channels
Channel positions : Front: L C R, Side: L R, LFE
Sampling rate : 48.0 KHz
Bit depth : 16 bits
Compression mode : Lossy
Stream size : 311 MiB (22%)
Alignment : Split accross interleaves
Interleave, duration : 42 ms (1.00 video frame)
Interleave, preload duration : 500 ms

Скриншот c названием фильма

Скриншоты

Создавать темы 25-Ноя-2013 08:19

[Профиль]  [ЛС] 

ASUS F5

Стаж: 5 лет 6 месяцев

Сообщений: 58

Симпатии: 3

Спасибо за релиз. А когда лицуха ?

Создавать темы 28-Ноя-2013 11:38

[Профиль]  [ЛС] 

Jnec

Стаж: 5 лет

Сообщений: 165

Спасибо!!!

Создавать темы 29-Ноя-2013 12:48

[Профиль]  [ЛС] 

deepclick

Стаж: 4 года 9 месяцев

Сообщений: 12

царство небесное Полу Уокеру молодец был актер !

Создавать темы 02-Дек-2013 16:36

[Профиль]  [ЛС] 

Rasl479

Стаж: 4 года

Сообщений: 35

Симпатии: 7

Светлая память! Замечательный был актёр! До сих пор не вериться что его нет(((

Создавать темы 02-Дек-2013 19:56

[Профиль]  [ЛС] 

Xuri007

Стаж: 5 лет 5 месяцев

Сообщений: 106

хорошый был актёр

Создавать темы 02-Дек-2013 23:12

[Профиль]  [ЛС] 

AeRoNHanD

Стаж: 5 лет 1 месяц

Сообщений: 198

Симпатии: 3

Никто не верит то что он умер((((Восхитительный был актер

Создавать темы 03-Дек-2013 00:33

[Профиль]  [ЛС] 

madik

Стаж: 5 лет 2 месяца

Сообщений: 89

Симпатии: 5

блее)) Пол...

Создавать темы 06-Дек-2013 12:03

[Профиль]  [ЛС] 

abilaykhan12

Стаж: 5 лет 2 месяца

Сообщений: 116

Симпатии: 2

ехх жалко пацана(

Создавать темы 06-Дек-2013 12:30

[Профиль]  [ЛС] 

gektor

Стаж: 6 лет 6 месяцев

Сообщений: 68

abilaykhan12, давно не пацан 40 лет

Создавать темы 06-Дек-2013 13:21

[Профиль]  [ЛС] 

vanfank

Стаж: 4 года 6 месяцев

Сообщений: 141

Симпатии: 5

Когда он успел снятся уже несколько фильмов 2013 года?

Создавать темы 16-Дек-2013 16:53

[Профиль]  [ЛС] 

Volk

Стаж: 4 года 9 месяцев

Сообщений: 27

Симпатии: 1

странновато... что он сам не был за рулем ... с начало врезались в дерево а потом в столб и еще машина загорелась ..., конечно после всего этого кремировали ...

Создавать темы 17-Дек-2013 08:35

[Профиль]  [ЛС] 

Paladinuz

Стаж: 5 лет 9 месяцев

Сообщений: 137

Симпатии: 85

Когда он успел снятся уже несколько фильмов 2013 года?
Он успел всё же сняться в последнем Форсаже, оставались несколько сцен, режиссер обесчал в 2014 закончить, в память о Поле Уокере.

Создавать темы 17-Дек-2013 16:34

[Профиль]  [ЛС] 

pct

Стаж: 6 лет 9 месяцев

Сообщений: 120

Симпатии: 12

режиссер обесчал в 2014 закончить, в память о Поле Уокере.
дадада! Прям так в память и деньги все с кассы отдаст бедным!

Создавать темы 17-Дек-2013 18:23

[Профиль]  [ЛС] 

vanfank

Стаж: 4 года 6 месяцев

Сообщений: 141

Симпатии: 5

Когда он успел снятся уже несколько фильмов 2013 года?
Он успел всё же сняться в последнем Форсаже, оставались несколько сцен, режиссер обесчал в 2014 закончить, в память о Поле Уокере.
и чё?

Создавать темы 19-Дек-2013 15:54

[Профиль]  [ЛС] 
Показать сообщения:    
Ответить на тему

Текущее время: 18-Ноя 13:16

Часовой пояс: UTC + 5



Вы не можете начинать темы
Вы не можете отвечать на сообщения
Вы не можете редактировать свои сообщения
Вы не можете удалять свои сообщения
Вы не можете голосовать в опросах
Вы не можете прикреплять файлы к сообщениям
Вы не можете скачивать файлы