Погнали! / Getaway (Кортни Соломон) [2013 г., Боевик, Криминал, BDRip-AVC 720p]

Ответить на тему
 

RichmanVIP ®

Стаж: 4 года 7 месяцев

Сообщений: 97

Симпатии: 4

Погнали! / Getaway-- Год выпуска: 2013
Страна: США, Болгария
Жанр: Боевик, Криминал
Продолжительность: 01:30:04
Перевод: Профессиональный (многоголосый)[Baibako]--Режиссер: Кортни Соломон
Сценарий: Шон Финеган, Грегг Максвелл Паркер
Продюсер: Моше Дайамант, Кристофер Милбёрн, Кортни Соломон
Оператор: Ярон Леви
Композитор: Джастин Кейн Барнетт
Художник: Мишель Джонс, Нат Джонс, Борислав Михайловский
Монтаж: Райан Дюфрен
--В ролях:
Итан Хоук, Селена Гомес
Джон Войт, Ребекка Бьюдиг, Пол Фримен, Брюс Пэйн,
Ивайло Герасков, Димо Алексиев, Велислав Павлов, Деян Ангелов
--Описание:
Бывшему гонщику Бренту приходится сесть за руль и следовать указаниям таинственного человека, чтобы спасти свою похищенную жену
--Доп. информация:
--Качество: BDRip-AVC 720p
Формат: MKV
Видео кодек: H.264
Аудио кодек: AC3
Видео: MPEG-4 (H264) AVC, 4056 Кбит/с, 1280x536, 23.976 кадр/с
Аудио 1: Russian: AC3, 384 Кбит/с (6 ch)
Аудио 2: English: DTS, 1509 Кбит/с (6 ch)
--

Знаете ли Вы, что...

- Во время съемок сцен в Болгарии актерам приходилось не раз менять гостиницу из-за огромного количества фанатов, поджидающих Селену Гомес у входа.
- Это последний фильм студии Dark Castle Entertainment, сделанный под эгидой Warner Bros.

MediaInfo

General
Unique ID : 225438289024982510987884587890715402039 (0xA999D5CC070F878F968A89B36E001F37)
Complete name : D:\Videos\2013\Погнали BDRip 720p.mkv
Format : Matroska
Format version : Version 4 / Version 2
File size : 3.74 GiB
Duration : 1h 30mn
Overall bit rate : 5 946 Kbps
Encoded date : UTC 2013-11-24 14:48:17
Writing application : mkvmerge v6.5.0 ('Isn't she lovely') built on Oct 20 2013 12:50:05
Writing library : libebml v1.3.0 + libmatroska v1.4.1
Video
ID : 1
Format : AVC
Format/Info : Advanced Video Codec
Format profile : [email protected]
Format settings, CABAC : Yes
Format settings, ReFrames : 10 frames
Codec ID : V_MPEG4/ISO/AVC
Duration : 1h 30mn
Bit rate : 4 056 Kbps
Width : 1 280 pixels
Height : 536 pixels
Display aspect ratio : 2.40:1
Frame rate mode : Constant
Frame rate : 23.976 fps
Color space : YUV
Chroma subsampling : 4:2:0
Bit depth : 8 bits
Scan type : Progressive
Bits/(Pixel*Frame) : 0.247
Stream size : 2.48 GiB (66%)
Title : Getaway.2013
Writing library : x264 core 138 r2356 a1d3d17
Encoding settings : cabac=1 / ref=10 / deblock=1:-3:-3 / analyse=0x3:0x113 / me=umh / subme=10 / psy=1 / psy_rd=1.00:0.05 / mixed_ref=1 / me_range=32 / chroma_me=1 / trellis=2 / 8x8dct=1 / cqm=0 / deadzone=21,11 / fast_pskip=0 / chroma_qp_offset=-2 / threads=18 / lookahead_threads=1 / sliced_threads=0 / nr=0 / decimate=1 / interlaced=0 / bluray_compat=0 / constrained_intra=0 / bframes=4 / b_pyramid=2 / b_adapt=2 / b_bias=0 / direct=3 / weightb=1 / open_gop=0 / weightp=2 / keyint=250 / keyint_min=23 / scenecut=40 / intra_refresh=0 / rc=2pass / mbtree=0 / bitrate=4056 / ratetol=1.0 / qcomp=0.70 / qpmin=0 / qpmax=69 / qpstep=4 / cplxblur=20.0 / qblur=0.5 / ip_ratio=1.40 / pb_ratio=1.30 / aq=2:1.00
Language : English
Default : Yes
Forced : No
Audio #1
ID : 2
Format : AC-3
Format/Info : Audio Coding 3
Mode extension : CM (complete main)
Format settings, Endianness : Big
Codec ID : A_AC3
Duration : 1h 30mn
Bit rate mode : Constant
Bit rate : 384 Kbps
Channel count : 6 channels
Channel positions : Front: L C R, Side: L R, LFE
Sampling rate : 48.0 KHz
Bit depth : 16 bits
Compression mode : Lossy
Stream size : 247 MiB (6%)
Language : Russian
Default : Yes
Forced : No
Audio #2
ID : 3
Format : DTS
Format/Info : Digital Theater Systems
Mode : 16
Format settings, Endianness : Big
Codec ID : A_DTS
Duration : 1h 30mn
Bit rate mode : Constant
Bit rate : 1 509 Kbps
Channel count : 6 channels
Channel positions : Front: L C R, Side: L R, LFE
Sampling rate : 48.0 KHz
Bit depth : 24 bits
Compression mode : Lossy
Stream size : 972 MiB (25%)
Title : DTS-CORE 1536K ENG
Language : English
Default : No
Forced : No

Скриншоты








Последний раз редактировалось: RichmanVIP (2013-11-26 17:36), всего редактировалось 1 раз

Создавать темы 26-Ноя-2013 13:27

[Профиль]  [ЛС] 

RichmanVIP ®

Стаж: 4 года 7 месяцев

Сообщений: 97

Симпатии: 4

исправил тех.данные и качество! Проверьте пожалуйста!

Создавать темы 26-Ноя-2013 17:42

[Профиль]  [ЛС] 

Топик был перенесен из форума HD-AVC в форум Зарубежное кино

RichmanVIP

Создавать темы 27-Ноя-2013 03:17

 
Показать сообщения:    
Ответить на тему

Текущее время: 18-Окт 05:28

Часовой пояс: UTC + 5



Вы не можете начинать темы
Вы не можете отвечать на сообщения
Вы не можете редактировать свои сообщения
Вы не можете удалять свои сообщения
Вы не можете голосовать в опросах
Вы не можете прикреплять файлы к сообщениям
Вы не можете скачивать файлы