Перси Джексон и Море чудовищ / Percy Jackson: Sea of Monsters (Тор Фройденталь / Thor Freudenthal) [2013, США, фэнтези, приключения, семейный, HDRip][Лицензия]

Страницы :  1, 2  След.

Ответить на тему
 

Suxrob89 ®

Стаж: 7 лет 1 месяц

Сообщений: 933

Симпатии: 564

- -Перси Джексон и Море чудовищ / Percy Jackson: Sea of Monsters-«Где Боги - там и монстры»- Страна: США
Жанр: фэнтези, приключения, семейный
Год выпуска: 2013
Продолжительность: 01:46:07-Перевод: Профессиональный (полное дублирование) [Лицензия]
Субтитры: нет
Режиссер: Тор Фройденталь / Thor Freudenthal
В ролях: Логан Лерман, Александра Даддарио, Дуглас Смит, Ливэн Рамбин, Брэндон Т. Джексон, Джейк Эйбел, Энтони Хэд, Стэнли Туччи, Коннор Крэш Данн, Палома Квиатковски, Нэйтан Филлион, Алиша Ньютон-Описание: Лагерь полукровок атакует Люк Кастеллан, который раскрывает свои планы по уничтожению горы Олимп. Наставник Перси, Хирон узнает, что Люк отравил волшебное дерево, которое отвечает за барьер, защищающий Лагерь Полукровок, и которое создано из Талии Грейс, дочери Зевса, убитой циклопом. Аннабет Чейз выясняет, что Золотое Руно может восстановить дерево, и директор лагеря, Дионис, посылает Клариссу Ла Ру, дочь Ареса и соперницу Перси, найти его...- -Бюджет: $90 000 000
Сборы в США: $68 062 807
Сборы в России: $12 654 045
Сборы в мире: $198 862 807
Мировая премьера: 7 августа 2013
Релиз на DVD: 12 декабря 2013, «Двадцатый Век Фокс СНГ»
Релиз на Blu-ray: 12 декабря 2013, «Двадцатый Век Фокс СНГ»-Качество: HDRip (Исходник BDRip 1080p [WiKi])
Контейнер: AVI
Видео: XviD, 720x304 (2.35:1), 1388 kbps, 23,976 fps, 0,265 bpp
Аудио: AC3 / 5.1 / 48 kHz / 448 kbps / 16 bit-

Знаете ли Вы, что...

  • Фильм снят по мотивам романа Рика Риордана «Перси Джексон и Море чудовищ» (The Sea of Monsters, 2006).
  • Ливэн Рамбин для своей роли Клариссы приходилось носить коричневый парик.
  • 20 июня - 22 июля съемки проходили в Новом Орлеане.
  • Александра Даддарио перекрасила волосы на светлые для роли Аннабет Чейз.
  • Планировалось, что фильм будет выпущен 15 марта 2013 года, но в мае 2012 года дата релиза была перенесена на 14 августа 2013 года.
  • Мистер Ди или Дионис (Стэнли Туччи) все же появился в этом фильме. В первом фильме («Перси Джексон и похититель молний» (2010)) его персонаж был удален.
  • Несмотря на то, что фильм был снят в формате «Супер 35», в финальных титрах указано «снято в Panavision».
  • Во время съемок сцен на яхте и шлюпке Александра Даддарио обнаружила, что у нее есть склонность к морской болезни. Интересно то, что у ее персонажа в романе эта болезнь развивается на корабле «Месть королевы Анны».
  • еще 5 фактов
  • В сценах в Вашингтоне, Округ Колумбия, на фоне видны небоскребы. По закону, принятому в 1910 году, ограничена высота зданий, самое высокое - 64 метра.
  • Когда Аннабет обнаруживает магические силы Золотого Руна на планшете, она затем подбегает к Гроверу, чтобы показать это, в этот момент можно заметить, что на его экране ничего нет.

Media Info

D:\Persi.Djekson.i.more.chudovish.2013.D.HDRip.1400MB.avi
General
Complete name : D:\Persi.Djekson.i.more.chudovish.2013.D.HDRip.1400MB.avi
Format : AVI
Format/Info : Audio Video Interleave
File size : 1.37 GiB
Duration : 1h 46mn
Overall bit rate : 1 846 Kbps
Writing application : VirtualDubMod 1.5.10.2 (build 2540/release)
Writing library : VirtualDubMod build 2540/release
Video #0
ID : 0
Format : MPEG-4 Visual
Format profile : Advanced Simple@L5
Format settings, BVOP : 2
Format settings, QPel : No
Format settings, GMC : No warppoints
Format settings, Matrix : Custom
Codec ID : XVID
Codec ID/Hint : XviD
Duration : 1h 46mn
Bit rate : 1 388 Kbps
Width : 720 pixels
Height : 304 pixels
Display aspect ratio : 2.35:1
Frame rate : 23.976 fps
Color space : YUV
Chroma subsampling : 4:2:0
Bit depth : 8 bits
Scan type : Progressive
Compression mode : Lossy
Bits/(Pixel*Frame) : 0.265
Stream size : 1.03 GiB (75%)
Writing library : XviD 1.2.1 (UTC 2008-12-04)
Audio #1
ID : 1
Format : AC-3
Format/Info : Audio Coding 3
Mode extension : CM (complete main)
Format settings, Endianness : Big
Codec ID : 2000
Duration : 1h 46mn
Bit rate mode : Constant
Bit rate : 448 Kbps
Channel(s) : 6 channels
Channel positions : Front: L C R, Side: L R, LFE
Sampling rate : 48.0 KHz
Bit depth : 16 bits
Compression mode : Lossy
Stream size : 340 MiB (24%)
Alignment : Split accross interleaves
Interleave, duration : 42 ms (1.00 video frame)
Interleave, preload duration : 500 ms

Скриншот с названием фильма

Скриншоты



Последний раз редактировалось: Suxrob89 (2013-12-27 06:05), всего редактировалось 2 раз(а)

Создавать темы 27-Ноя-2013 06:24

[Профиль]  [ЛС] 

BendeR98

Стаж: 4 года 10 месяцев

Сообщений: 281

Симпатии: 10

Ура ЛИЦУХА! Модеры проверяйте быстрей)

Создавать темы 27-Ноя-2013 07:28

[Профиль]  [ЛС] 

npocTo kpacaB4uk

Стаж: 4 года 6 месяцев

Сообщений: 321

Симпатии: 20

Спасибо огромное! Ждал лицензии))

Создавать темы 27-Ноя-2013 07:30

[Профиль]  [ЛС] 

Анархист

Стаж: 5 лет 3 месяца

Сообщений: 63

Симпатии: 14

Книжная серия была лучше чем экранизации. ИМХО.

Создавать темы 27-Ноя-2013 12:13

[Профиль]  [ЛС] 

zverblackboxfinder

Стаж: 3 года 11 месяцев

Сообщений: 31

Симпатии: 1

720х304 достали мне этот размер,
можна увеличить aq

Создавать темы 27-Ноя-2013 15:52

[Профиль]  [ЛС] 

ecliiiipse

Стаж: 4 года 3 месяца

Сообщений: 22

кто смотрел фильм как он

Создавать темы 28-Ноя-2013 13:33

[Профиль]  [ЛС] 

West_Monster

Стаж: 4 года 1 месяц

Сообщений: 62

Симпатии: 1

полная фантастика ето херня

Создавать темы 28-Ноя-2013 19:27

[Профиль]  [ЛС] 

Maxwn

Стаж: 6 лет 8 месяцев

Сообщений: 243

Симпатии: 10

Глупая сказка....

Создавать темы 02-Дек-2013 12:47

[Профиль]  [ЛС] 

Emigrate

Стаж: 5 лет 8 месяцев

Сообщений: 110

Симпатии: 1

Дайте скачать

Создавать темы 02-Дек-2013 14:14

[Профиль]  [ЛС] 

absra

Стаж: 5 лет 6 месяцев

Сообщений: 10

По ходу фильм не так уж?

Создавать темы 03-Дек-2013 21:05

[Профиль]  [ЛС] 

t1man

Стаж: 4 года 11 месяцев

Сообщений: 75

Стоит скачивать? кто нибудь знает? отпишитесь

Создавать темы 05-Дек-2013 22:32

[Профиль]  [ЛС] 

Леонид79

Стаж: 5 лет 5 месяцев

Сообщений: 8

Дайте скорости ) ппж

Создавать темы 06-Дек-2013 20:01

[Профиль]  [ЛС] 

Leviza

Стаж: 4 года 5 месяцев

Сообщений: 13

Симпатии: 1

посоветуйте стоит ли тратить время и качать фильм пожалуйста

Создавать темы 11-Дек-2013 22:09

[Профиль]  [ЛС] 

Javohir96

Стаж: 5 лет 7 месяцев

Сообщений: 40

Симпатии: 1

Мне кажется что по 1 и 2 скрину можно понять что качать и тратить время на это уг не стоит...

Создавать темы 12-Дек-2013 21:57

[Профиль]  [ЛС] 

Nodirbek2109

Стаж: 3 года 9 месяцев

Сообщений: 2

Фильм нормальный можно смотреть

Создавать темы 12-Дек-2013 22:05

[Профиль]  [ЛС] 
Показать сообщения:    
Ответить на тему

Текущее время: 22-Сен 07:49

Часовой пояс: UTC + 5



Вы не можете начинать темы
Вы не можете отвечать на сообщения
Вы не можете редактировать свои сообщения
Вы не можете удалять свои сообщения
Вы не можете голосовать в опросах
Вы не можете прикреплять файлы к сообщениям
Вы не можете скачивать файлы