Хорошие дети не плачут / Achtste Groepers Huilen Niet / Cool Kids Don't Cry (Деннис Ботс) [2012 г., драма, семейный, HDRip]

Ответить на тему
 

serjjoga ®

Стаж: 7 лет 2 месяца

Сообщений: 428

Симпатии: 33

Хорошие дети не плачут / Achtste Groepers Huilen Niet / Cool Kids Don't Cry- Год выпуска: 2012
Страна: Нидерланды
Жанр: драма, семейный
Продолжительность: 01:35:44
Перевод: Профессиональный (двухголосый) - студия Elrom
Режиссер: Деннис Ботс
В ролях: Ханна Оббек, Нильс Веркоохен, Фиона Ливингстон, Брэм Флик, Амин Бельяндоз, Ева Ван-дер-Гюхт, Люк Питерс, Иоханна тер Стехе, Рейну Буссемакер, Крис Комвалиус
Описание: Шестиклассница Акки настоящая хулиганка: она любит футбол, дерётся с мальчишками и ничего не боится. Ничего, кроме любви. Однако, когда ей ставят диагноз лейкемия, именно любовь дает ей силы бороться с болезнью и принять неизбежное...
Качество: HDRip
Формат: AVI
Видео кодек: XviD
Аудио кодек: AC3
Видео: Xvid 720x304 25.00fps 1647kbps
Аудио: RUS/DUT: Dolby AC3 48000Hz stereo 192kbps
 

Скриншоты






MI

Complete name : D:\Downloads\Achtste-groepers Huilen Niet (2012)\Horoshie.Deti.ne.Plachut.2012.HDrip.XviD.Rus-Dut_25KADR.avi
Format : AVI
Format/Info : Audio Video Interleave
File size : 1.37 GiB
Duration : 1h 35mn
Overall bit rate : 2 046 Kbps
Movie name : PAL-ru-dut.3.Bezzvuka.Okonch
Original source form/Distributed : Cool.Kids Don't.Cry.2012.1080p.BluRay.x264-BrRip.net.MKV
Genre : Drama, Family
Copyright : 25KADR
Comment : DVO (Elrom studio)
Video
ID : 0
Format : MPEG-4 Visual
Format profile : Advanced [email protected]
Format settings, BVOP : Yes
Format settings, QPel : No
Format settings, GMC : No warppoints
Format settings, Matrix : Default (MPEG)
Codec ID : XVID
Codec ID/Hint : XviD
Duration : 1h 35mn
Bit rate : 1 648 Kbps
Width : 720 pixels
Height : 304 pixels
Display aspect ratio : 2.35:1
Frame rate : 25.000 fps
Color space : YUV
Chroma subsampling : 4:2:0
Bit depth : 8 bits
Scan type : Progressive
Bits/(Pixel*Frame) : 0.301
Stream size : 1.10 GiB (81%)
Writing library : XviD 64
Audio #1
ID : 1
Format : AC-3
Format/Info : Audio Coding 3
Mode extension : CM (complete main)
Codec ID : 2000
Duration : 1h 35mn
Bit rate mode : Constant
Bit rate : 192 Kbps
Channel(s) : 2 channels
Channel positions : Front: L R
Sampling rate : 48.0 KHz
Bit depth : 16 bits
Stream size : 131 MiB (9%)
Alignment : Split accross interleaves
Interleave, duration : 40 ms (1.00 video frame)
Interleave, preload duration : 500 ms
Language : 1. / Swati / 2. / tch
Audio #2
ID : 2
Format : AC-3
Format/Info : Audio Coding 3
Mode extension : CM (complete main)
Codec ID : 2000
Duration : 1h 35mn
Bit rate mode : Constant
Bit rate : 192 Kbps
Channel(s) : 2 channels
Channel positions : Front: L R
Sampling rate : 48.0 KHz
Bit depth : 16 bits
Stream size : 131 MiB (9%)
Alignment : Split accross interleaves
Interleave, duration : 40 ms (1.00 video frame)
Interleave, preload duration : 500 ms

Создавать темы 27-Ноя-2013 11:08

[Профиль]  [ЛС] 

dilya1997

Стаж: 4 года 7 месяцев

Сообщений: 6

Симпатии: 1

оо..я думала никогда не смогу посмотреть этот фильм)) спасибо)))

Создавать темы 15-Дек-2013 16:50

[Профиль]  [ЛС] 

jojo1

Стаж: 5 лет

Сообщений: 174

Симпатии: 50

Фильм классный...Авторам Респект!Смотреть всем...)

Создавать темы 24-Дек-2013 21:30

[Профиль]  [ЛС] 

Lost

Стаж: 6 лет 6 месяцев

Сообщений: 43

Симпатии: 2

Она походу ещё живая осталась, так мне сказали

Создавать темы 24-Янв-2014 17:25

[Профиль]  [ЛС] 

Lost

Стаж: 6 лет 6 месяцев

Сообщений: 43

Симпатии: 2

Я имею ввиду, она типо во второй части живая будет)

Создавать темы 24-Янв-2014 17:26

[Профиль]  [ЛС] 

Maxmasalayev

Стаж: 3 года 11 месяцев

Сообщений: 5

сидов 6 но блин скорость 0((((

Создавать темы 21-Мар-2014 20:38

[Профиль]  [ЛС] 

AZIZ97

Стаж: 5 лет 1 месяц

Сообщений: 199

Симпатии: 22

дайте скорость плыыыыыыз.....

Создавать темы 20-Янв-2015 17:04

[Профиль]  [ЛС] 

berghoff007

Стаж: 5 лет 3 месяца

Сообщений: 1

Дайте раздачу, пожалуйста, кто скачал!

Создавать темы 29-Май-2016 14:46

[Профиль]  [ЛС] 
Показать сообщения:    
Ответить на тему

Текущее время: 20-Окт 04:44

Часовой пояс: UTC + 5



Вы не можете начинать темы
Вы не можете отвечать на сообщения
Вы не можете редактировать свои сообщения
Вы не можете удалять свои сообщения
Вы не можете голосовать в опросах
Вы не можете прикреплять файлы к сообщениям
Вы не можете скачивать файлы