Бесстрашная публичная речь [2011 г.]

Ответить на тему
 

bexa96 ®

Стаж: 6 лет 7 месяцев

Сообщений: 381

Симпатии: 49

Бесстрашная публичная речь Страна: Россия
Производитель: smartinfomarketing.ru
Сайт производителя: http://www.govori-bez-straha.ru/
Год выпуска: 2011
Язык: русский
Общая продолжительность:01:11:24
Описание: Внимательно посмотрите видео-лекцию от начала до конца и отметьте в тетради те моменты, которые вы намерены пустить в практику при вашем следующем публичном выступлении!
После просмотра основной лекции, откройте папку «Вокальные трояны». Запишите 2 аудио-файла на свой MP3-плеер и внимательно послушайте этот материал несколько раз.
Это дополнение очень поможет вам в совершенствовании вашего
голоса и дикции, что тоже положительно повлияет на ваши публичные выступления. Плюс, по теме голоса вас еще ждет небольшой подарок в папке «дополнительно». Там книга с упражнениями, плюс аудио про навык свободной речи.
Все это – материалы, которые просто феноменально помогли мне! Поэтому я уверен, что они очень сильно помогут и вам!
Главное – ПРАКТИКА!
Да, возможно я не самый лучший «учитель», но я постарался избежать воды и дать вам только то, что можно сразу же применить в деле.
И я уверен, что у вас все получится! Содержание файл видео + mp3 Файлы примеров: не предусмотрены
Формат:MPEG-4
Видео кодек: QuickTime
Аудио кодек:Apple QuickTime
Видео: MPEG4 Video (H264) 1260x788 25.00fps [Apple]
Аудио: PCM 44100Hz stereo 1411kbps [Apple]

MediaInfo

General
Format : MPEG-4
Format profile : QuickTime
Codec ID : qt
File size : 1.55 GiB
Duration : 1h 11mn
Overall bit rate : 3 113 Kbps
Encoded date : UTC 2010-07-13 14:04:19
Tagged date : UTC 2010-07-13 19:33:01
Writing library : Apple QuickTime
Video
ID : 1
Format : AVC
Format/Info : Advanced Video Codec
Format profile : [email protected]
Format settings, CABAC : No
Format settings, ReFrames : 2 frames
Format settings, GOP : M=2, N=24
Codec ID : avc1
Codec ID/Info : Advanced Video Coding
Duration : 1h 11mn
Bit rate : 1 699 Kbps
Width : 1 260 pixels
Height : 788 pixels
Display aspect ratio : 1.599
Frame rate mode : Constant
Frame rate : 25.000 fps
Color space : YUV
Chroma subsampling : 4:2:0
Bit depth : 8 bits
Scan type : Progressive
Bits/(Pixel*Frame) : 0.068
Stream size : 868 MiB (55%)
Title : Ћбработчик видео Apple / Ћбработчик псевдонимов Apple
Language : English
Encoded date : UTC 2010-07-13 18:35:10
Tagged date : UTC 2010-07-13 19:33:01
Color primaries : BT.709-5, BT.1361, IEC 61966-2-4, SMPTE RP177
Transfer characteristics : BT.709-5, BT.1361
Matrix coefficients : BT.709-5, BT.1361, IEC 61966-2-4 709, SMPTE RP177
Material_Duration : 4284360
Material_StreamSize : 910052151
Material_FrameCount : 107109
Audio
ID : 2
Format : PCM
Format settings, Endianness : Little
Format settings, Sign : Signed
Codec ID : sowt
Duration : 1h 11mn
Bit rate mode : Constant
Bit rate : 1 411.2 Kbps
Channel(s) : 2 channels
Channel positions : Front: L R
Sampling rate : 44.1 KHz
Bit depth : 16 bits
Stream size : 721 MiB (45%)
Title : Ћбработчик звука Apple / Ћбработчик псевдонимов Apple
Language : English
Encoded date : UTC 2010-07-13 18:35:12
Tagged date : UTC 2010-07-13 19:33:01

Скриншоты





Создавать темы 29-Ноя-2013 07:51

[Профиль]  [ЛС] 

temurid

Стаж: 5 лет 4 месяца

Сообщений: 60

Симпатии: 1

отличный релиз!!щась качнем

Создавать темы 29-Ноя-2013 10:19

[Профиль]  [ЛС] 
Показать сообщения:    
Ответить на тему

Текущее время: 17-Авг 02:36

Часовой пояс: UTC + 5



Вы не можете начинать темы
Вы не можете отвечать на сообщения
Вы не можете редактировать свои сообщения
Вы не можете удалять свои сообщения
Вы не можете голосовать в опросах
Вы не можете прикреплять файлы к сообщениям
Вы не можете скачивать файлы