Приключения Тома Сойера и Гекльберри Финна (Станислав Говорухин) [1981 г., детский, приключения, DVDRip]

Ответить на тему
 

Ershov ®

Стаж: 4 года 8 месяцев

Сообщений: 61

Симпатии: 6

Приключения Тома Сойера и Гекльберри Финна
Год выпуска: 1981
Страна: СССР
Жанр: Детский, Приключения
Продолжительность: 1 серия - 01:12:35, 2 серия - 01:06:18, 3 серия - 01:03:38
Перевод: Не требуется (оригинальный)
Режиссер: Станислав Говорухин
В ролях: Федя Стуков, Владик Сухачев (Галкин), Маша Миронова, Дима Рощин, Карина Моритц, Екатерина Васильева, Ролан Быков, Владимир Конкин, Виктор Павлов, Талгат Нигматулин, Лев Перфилов, Всеволод Абдулов, Валентина Шендрикова, Борис Зайденберг, Федор Одиноков, Валерий Рубинчик, Игорь Сорин, Бехайлу Менгаша
Описание: Экранизация самого знаменитого романа американского писателя Марка Твена «Приключения Тома Сойера». Без книги о приключениях Тома и его друзей Гекльберри Финна и Бекки Тэтчер нельзя представить детство ребенка! Маленькие, но отважные герои Том и Гек разыскивают клад, становятся «пиратами», вступают в опасную схватку с индейцем Джо. Но, самое главное в этой истории - то, что они учатся быть верными друзьями и добрыми людьми...
Качество: DVDRip
Формат: AVI
Видео кодек: DivX
Аудио кодек: MP3
Видео: 560x420, 25fps, ~ 1321 kbps
Аудио: stereo, 48 kHz, ~ 128 kbps

Скриншоты

Интересные факты

* Первая роль в кино Владислава Галкина
* Роль Гекльберри Финна дублировала Александра Назарова, Роль индейца Джо дублировал Николай Караченцов
* Юные актеры, снявшиеся в этой картине, сделали прекрасную карьеру в кино. Федя Стуков (Том Сойер) снялся в других знаменитых фильмах: «Остров сокровищ» и «Родня», а впоследствии стал телережиссером. Влад Галкин (Гекльберри Финн) - герой популярных сериалов «Дальнобойщики», «Спецназ», «По ту сторону волков», «Грязная работа». Маша Миронова (Беки Тэтчер) - одна из ярких звезд современного российского кино, известная по главным ролям в фильмах «Свадьба» и «Олигарх»

MediaInfo

MediaInfo-1

General
Format : AVI
Format/Info : Audio Video Interleave
File size : 683 MiB
Duration : 1h 12mn
Overall bit rate : 1 316 Kbps
Writing library : VirtualDub build 14279/release
Video
ID : 0
Format : MPEG-4 Visual
Format settings, BVOP : 1
Format settings, QPel : No
Format settings, GMC : No warppoints
Format settings, Matrix : Default (H.263)
Muxing mode : Packed bitstream
Codec ID : DX50
Codec ID/Hint : DivX 5
Duration : 1h 12mn
Bit rate : 1 179 Kbps
Width : 560 pixels
Height : 420 pixels
Display aspect ratio : 4:3
Frame rate : 25.000 fps
Color space : YUV
Chroma subsampling : 4:2:0
Bit depth : 8 bits
Scan type : Progressive
Compression mode : Lossy
Bits/(Pixel*Frame) : 0.200
Stream size : 612 MiB (90%)
Writing library : DivX 5.0.2 (UTC 2002-05-16)
Audio
ID : 1
Format : MPEG Audio
Format version : Version 1
Format profile : Layer 3
Mode : Joint stereo
Mode extension : MS Stereo
Codec ID : 55
Codec ID/Hint : MP3
Duration : 1h 12mn
Bit rate mode : Constant
Bit rate : 128 Kbps
Channel(s) : 2 channels
Sampling rate : 48.0 KHz
Compression mode : Lossy
Stream size : 66.4 MiB (10%)
Alignment : Split accross interleaves
Interleave, duration : 40 ms (1.00 video frame)
Interleave, preload duration : 451 ms

MediaInfo-2

General
Format : AVI
Format/Info : Audio Video Interleave
File size : 692 MiB
Duration : 1h 6mn
Overall bit rate : 1 458 Kbps
Writing library : VirtualDub build 14279/release
Video
ID : 0
Format : MPEG-4 Visual
Format settings, BVOP : 1
Format settings, QPel : No
Format settings, GMC : No warppoints
Format settings, Matrix : Default (H.263)
Muxing mode : Packed bitstream
Codec ID : DX50
Codec ID/Hint : DivX 5
Duration : 1h 6mn
Bit rate : 1 321 Kbps
Width : 560 pixels
Height : 420 pixels
Display aspect ratio : 4:3
Frame rate : 25.000 fps
Color space : YUV
Chroma subsampling : 4:2:0
Bit depth : 8 bits
Scan type : Progressive
Compression mode : Lossy
Bits/(Pixel*Frame) : 0.225
Stream size : 626 MiB (91%)
Writing library : DivX 5.0.2 (UTC 2002-05-16)
Audio
ID : 1
Format : MPEG Audio
Format version : Version 1
Format profile : Layer 3
Mode : Joint stereo
Mode extension : MS Stereo
Codec ID : 55
Codec ID/Hint : MP3
Duration : 1h 6mn
Bit rate mode : Constant
Bit rate : 128 Kbps
Channel(s) : 2 channels
Sampling rate : 48.0 KHz
Compression mode : Lossy
Stream size : 60.7 MiB (9%)
Alignment : Split accross interleaves
Interleave, duration : 40 ms (1.00 video frame)
Interleave, preload duration : 451 ms

MediaInfo-3

General
Format : AVI
Format/Info : Audio Video Interleave
File size : 664 MiB
Duration : 1h 3mn
Overall bit rate : 1 459 Kbps
Writing library : VirtualDub build 14279/release
Video
ID : 0
Format : MPEG-4 Visual
Format settings, BVOP : 1
Format settings, QPel : No
Format settings, GMC : No warppoints
Format settings, Matrix : Default (H.263)
Muxing mode : Packed bitstream
Codec ID : DX50
Codec ID/Hint : DivX 5
Duration : 1h 3mn
Bit rate : 1 321 Kbps
Width : 560 pixels
Height : 420 pixels
Display aspect ratio : 4:3
Frame rate : 25.000 fps
Color space : YUV
Chroma subsampling : 4:2:0
Bit depth : 8 bits
Scan type : Progressive
Compression mode : Lossy
Bits/(Pixel*Frame) : 0.225
Stream size : 601 MiB (91%)
Writing library : DivX 5.0.2 (UTC 2002-05-16)
Audio
ID : 1
Format : MPEG Audio
Format version : Version 1
Format profile : Layer 3
Mode : Joint stereo
Mode extension : MS Stereo
Codec ID : 55
Codec ID/Hint : MP3
Duration : 1h 3mn
Bit rate mode : Constant
Bit rate : 128 Kbps
Channel(s) : 2 channels
Sampling rate : 48.0 KHz
Compression mode : Lossy
Stream size : 58.3 MiB (9%)
Alignment : Split accross interleaves
Interleave, duration : 40 ms (1.00 video frame)
Interleave, preload duration : 450 ms


Последний раз редактировалось: Ershov (2013-11-29 13:28), всего редактировалось 2 раз(а)

Создавать темы 29-Ноя-2013 13:22

[Профиль]  [ЛС] 

Ershov ®

Стаж: 4 года 8 месяцев

Сообщений: 61

Симпатии: 6

Раздавать буду нерегулярно по возможности, т.к. отключения света непредсказуемы, поэтому просьба не "пинать" сообщениями "где раздача?" и т.д. и т.п.
Выражаю благодарность пользователю Guff за фильм и помощь в оформлении раздачи

Создавать темы 29-Ноя-2013 13:25

[Профиль]  [ЛС] 

alexsandr87

Стаж: 4 года 5 месяцев

Сообщений: 2

Качаю фильм, по возможности не отключайся!

Создавать темы 24-Авг-2014 00:53

[Профиль]  [ЛС] 

Ru77ell

Стаж: 5 лет 4 месяца

Сообщений: 37

Когда будет?

Создавать темы 12-Май-2016 21:43

[Профиль]  [ЛС] 
Показать сообщения:    
Ответить на тему

Текущее время: 19-Окт 12:25

Часовой пояс: UTC + 5



Вы не можете начинать темы
Вы не можете отвечать на сообщения
Вы не можете редактировать свои сообщения
Вы не можете удалять свои сообщения
Вы не можете голосовать в опросах
Вы не можете прикреплять файлы к сообщениям
Вы не можете скачивать файлы