Сталинград (Федор Бондарчук) [2013 г., Боевик, Военный, Драма, DVDRip] [Лицензия]

Страницы :  1, 2, 3, 4  След.

Ответить на тему
 

mansurjon ®

Стаж: 7 лет 3 месяца

Сообщений: 103

Симпатии: 3

-
Год выпуска: 2013
Страна: Россия
Жанр: Боевик, Военный, Драма
Перевод: Оригинал
Бюджет: $30 000 000
Продолжительность: 02:05:30-Режиссер: Федор Бондарчук
Сценаристы: Сергей Снежкин, Илья Тилькин
Продюсеры: Александр Роднянский, Дмитрий Рудовский, Сергей Мелькумов
Оператор: Максим Осадчий
Композитор: Анджело Бадаламенти-В ролях: Алексей Барабаш, Петр Федоров, Томас Кречманн, Хайнер Лаутербах, Андрей Смоляков, Сергей Бондарчук, Мария Смольникова, Яна Студилина, Дмитрий Лысенков, Олег Тилькин-Описание: Потерпев неудачу при попытке перейти Волгу и начать контрнаступление на немецкую армию, советские войска вынуждены отступать. Однако нескольким солдатам удалось перебраться на берег противника. Они остаются в меньшинстве и укрываются в прибрежном доме, где встречают девушку. Её дом заняли немцы, а сама она не успела покинуть линию фронта. На фоне самого кровопролитного в истории человечества сражения развивается история любви, и солдатам теперь любой ценой надо защитить эту девушку.-Рейтинг:  -Качество: DVDRip
Формат: AVI
Видео кодек: XviD
Аудио кодек: AC3
Видео: Xvid 720x304 1882Kbps 25fps
Аудио: Dolby AC3 48000Hz 6ch 448kbps-

МедиаИнфо

General
Complete name : Stalingrad.2013.O.DVDRip.avi
Format : AVI
Format/Info : Audio Video Interleave
Format profile : OpenDML
File size : 2.05 GiB
Duration : 2h 5mn
Overall bit rate : 2 342 Kbps
Writing application : VirtualDubMod 1.5.10.3 | www.virtualdub-fr.org || (build 2550/release)
Writing library : VirtualDubMod build 2550/release
Video
ID : 0
Format : MPEG-4 Visual
Format profile : Advanced [email protected]
Format settings, BVOP : 1
Format settings, QPel : No
Format settings, GMC : No warppoints
Format settings, Matrix : Custom
Codec ID : XVID
Codec ID/Hint : XviD
Duration : 2h 5mn
Bit rate : 1 882 Kbps
Width : 720 pixels
Height : 304 pixels
Display aspect ratio : 2.35:1
Frame rate : 25.000 fps
Color space : YUV
Chroma subsampling : 4:2:0
Bit depth : 8 bits
Scan type : Progressive
Compression mode : Lossy
Bits/(Pixel*Frame) : 0.344
Stream size : 1.65 GiB (80%)
Writing library : XviD 1.2.1 (UTC 2008-12-04)
Audio
ID : 1
Format : AC-3
Format/Info : Audio Coding 3
Mode extension : CM (complete main)
Format settings, Endianness : Big
Codec ID : 2000
Duration : 2h 5mn
Bit rate mode : Constant
Bit rate : 448 Kbps
Channel(s) : 6 channels
Channel positions : Front: L C R, Side: L R, LFE
Sampling rate : 48.0 KHz
Bit depth : 16 bits
Compression mode : Lossy
Stream size : 402 MiB (19%)
Alignment : Split accross interleaves
Interleave, duration : 40 ms (1.00 video frame)
Interleave, preload duration : 500 ms

Скриншоты




Создавать темы 30-Ноя-2013 03:13

[Профиль]  [ЛС] 

ruffio333

Стаж: 4 года 7 месяцев

Сообщений: 10

Спасибо!

Создавать темы 30-Ноя-2013 08:59

[Профиль]  [ЛС] 

Evgeny99

Стаж: 6 лет 7 месяцев

Сообщений: 82

Симпатии: 3

А кто в курсе когда BDrip выйдет ?

Создавать темы 30-Ноя-2013 10:24

[Профиль]  [ЛС] 

AeRoNHanD

Стаж: 4 года 10 месяцев

Сообщений: 198

Симпатии: 3

Так быстро)))Спасибо

Создавать темы 30-Ноя-2013 11:14

[Профиль]  [ЛС] 

xamdullayev

Стаж: 3 года 10 месяцев

Сообщений: 20

Симпатии: 1

дайте скорости

Создавать темы 30-Ноя-2013 14:40

[Профиль]  [ЛС] 

xamdullayev

Стаж: 3 года 10 месяцев

Сообщений: 20

Симпатии: 1

плииз

Создавать темы 30-Ноя-2013 14:41

[Профиль]  [ЛС] 

mansurjon ®

Стаж: 7 лет 3 месяца

Сообщений: 103

Симпатии: 3

А кто в курсе когда BDrip выйдет ?

Создавать темы 30-Ноя-2013 14:41

[Профиль]  [ЛС] 

mansurjon ®

Стаж: 7 лет 3 месяца

Сообщений: 103

Симпатии: 3

дайте скорости
раздаю по полному 19мбит/сек

Создавать темы 30-Ноя-2013 14:44

[Профиль]  [ЛС] 

xamdullayev

Стаж: 3 года 10 месяцев

Сообщений: 20

Симпатии: 1

спс)

Создавать темы 30-Ноя-2013 14:49

[Профиль]  [ЛС] 

Sayfah

Стаж: 3 года 9 месяцев

Сообщений: 15

дайте скорости-плииз

Создавать темы 30-Ноя-2013 23:09

[Профиль]  [ЛС] 

mansurjon ®

Стаж: 7 лет 3 месяца

Сообщений: 103

Симпатии: 3

дайте скорости-плииз
ненавижу NAT/IPv6

Создавать темы 30-Ноя-2013 23:15

[Профиль]  [ЛС] 

KennY

Стаж: 6 лет 9 месяцев

Сообщений: 82

Симпатии: 1

С а----ра стырил ?mansurjon,


Последний раз редактировалось: KennY (2013-12-01 19:51), всего редактировалось 1 раз

Создавать темы 01-Дек-2013 12:09

[Профиль]  [ЛС] 

ASUS F5

Стаж: 5 лет 3 месяца

Сообщений: 58

Симпатии: 3

Спасибо большое mansurjon, Tas-Ix.net всегда лучшие релизы

Создавать темы 01-Дек-2013 12:49

[Профиль]  [ЛС] 

ramil50

Стаж: 5 лет 7 месяцев

Сообщений: 17

Симпатии: 4

дайте скорости...плизззз

Создавать темы 01-Дек-2013 18:02

[Профиль]  [ЛС] 

ss08111995

Стаж: 4 года 7 месяцев

Сообщений: 46

Симпатии: 3

Хорошо что все новые актёры

Создавать темы 01-Дек-2013 18:53

[Профиль]  [ЛС] 
Показать сообщения:    
Ответить на тему

Текущее время: 21-Авг 19:07

Часовой пояс: UTC + 5



Вы не можете начинать темы
Вы не можете отвечать на сообщения
Вы не можете редактировать свои сообщения
Вы не можете удалять свои сообщения
Вы не можете голосовать в опросах
Вы не можете прикреплять файлы к сообщениям
Вы не можете скачивать файлы