Мизерере / La marque des anges - Miserere (Сильвен Уайт / Sylvain White) [2013 г., триллер, HDRip]

Ответить на тему
 

Suxrob89 ®

Стаж: 7 лет 1 месяц

Сообщений: 933

Симпатии: 564

Мизерере / La marque des anges - Miserere- Страна: Франция, Бельгия
Жанр: триллер
Год выпуска: 2013
Продолжительность: 01:45:50-Перевод: Любительский (одноголосый) [Andi]
Оригинальная аудиодорожка: французский
Субтитры: нет-Режиссер: Сильвен Уайт / Sylvain White-В ролях: Жерар Депардье, Джои Старр, Рюдигер Фоглер, Элена Ногуэрра, Марта Келлер, Тьерри Лермитт, Кевин Меффр, Иван Франек, Жерар Шеллу, Джеймс Жерар, Джо Шеридан, Том Хоффман-Описание: В армянском соборе Святого Иоанна Крестителя в Париже убит чилийский беженец Вильгельм Гетц, регент хора мальчиков и органист. Касдан, офицер полиции в отставке и прихожанин собора, немедленно начинает собственное неофициальное расследование. К нему присоединяется Волокин из отдела по защите прав несовершеннолетних. Оказывается, в прошлом исчезло несколько мальчиков из хоров, которыми руководил Гетц. За первым преступлением следуют еще более кровавые убийства. Между полным опасностей расследованием, в которое пускаются герои, и старинным хоралом «Мизерере» существует таинственная связь...-Доп. информация:
 -Сценарий: Сильвен Уайт, Жан-Кристоф Гранже, Лорен Тернер
Продюсер: Стефан Сперри, Люк Босси, Ромейн Ле Гранд, Оливье Абрассар, Хьюберт Тойнт
Оператор: Дени Руден
Композитор: Макс Рихтер
Бюджет: €15 000 000
Мировая премьера: 26 июня 2013-Качество: HDRip
Контейнер: AVI
Видео: XviD, 720x304 (2.35:1), 1508 kbps, 23,976 fps, 0,288 bpp
Аудио №1: Russian: AC3 / 2.0 / 48 kHz / 224 kbps / 16 bit
Аудио №2: French: AC3 / 2.0 / 48 kHz / 224 kbps / 16 bit-

Media Info

General
Complete name : G:\Mizareze.2013.L1_HDRip.avi
Format : AVI
Format/Info : Audio Video Interleave
File size : 1.46 GiB
Duration : 1h 45mn
Overall bit rate : 1 971 Kbps
Writing application : VirtualDubMod 1.5.10.3 | www.virtualdub-fr.org || (build 2550/release)
Writing library : VirtualDubMod build 2550/release
Video
ID : 0
Format : MPEG-4 Visual
Format profile : [email protected]
Format settings, BVOP : No
Format settings, QPel : No
Format settings, GMC : No warppoints
Format settings, Matrix : Default (H.263)
Codec ID : XVID
Codec ID/Hint : XviD
Duration : 1h 45mn
Bit rate : 1 509 Kbps
Width : 720 pixels
Height : 304 pixels
Display aspect ratio : 2.35:1
Frame rate : 23.976 fps
Color space : YUV
Chroma subsampling : 4:2:0
Bit depth : 8 bits
Scan type : Progressive
Compression mode : Lossy
Bits/(Pixel*Frame) : 0.288
Stream size : 1.12 GiB (77%)
Writing library : XviD 1.1.2 (UTC 2006-11-01)
Audio #1
ID : 1
Format : AC-3
Format/Info : Audio Coding 3
Mode extension : CM (complete main)
Codec ID : 2000
Duration : 1h 45mn
Bit rate mode : Constant
Bit rate : 224 Kbps
Channel(s) : 2 channels
Channel positions : Front: L R
Sampling rate : 48.0 KHz
Bit depth : 16 bits
Compression mode : Lossy
Stream size : 170 MiB (11%)
Alignment : Split accross interleaves
Interleave, duration : 42 ms (1.00 video frame)
Interleave, preload duration : 500 ms
Audio #2
ID : 2
Format : AC-3
Format/Info : Audio Coding 3
Mode extension : CM (complete main)
Codec ID : 2000
Duration : 1h 45mn
Bit rate mode : Constant
Bit rate : 224 Kbps
Channel(s) : 2 channels
Channel positions : Front: L R
Sampling rate : 48.0 KHz
Bit depth : 16 bits
Compression mode : Lossy
Stream size : 170 MiB (11%)
Alignment : Split accross interleaves
Interleave, duration : 42 ms (1.00 video frame)
Interleave, preload duration : 500 ms

Скриншот с названием фильма

Скриншоты





Последний раз редактировалось: Suxrob89 (2013-12-01 12:23), всего редактировалось 1 раз

Создавать темы 01-Дек-2013 04:24

[Профиль]  [ЛС] 
Показать сообщения:    
Ответить на тему

Текущее время: 25-Сен 09:24

Часовой пояс: UTC + 5



Вы не можете начинать темы
Вы не можете отвечать на сообщения
Вы не можете редактировать свои сообщения
Вы не можете удалять свои сообщения
Вы не можете голосовать в опросах
Вы не можете прикреплять файлы к сообщениям
Вы не можете скачивать файлы